设为首页收藏本站

捌零音乐论坛

 找回密码
 注册

QQ登录

只需一步,快速开始

搜索
朗韵纯数字HIFI音响高端 4K级HDMI线Golden sound专卖DSD SACD 数码母带音乐硬盘拷贝互泊云空间 买2年送1年 送COM域名大昌◣播放器&音源设备◣厂家直供
VMV/勝音勝(HK)耳放&解碼器自选DSD SACD 24bit数码母带特价SACD解码器母带DSD免费拷派扬音响-超高性价比发烧音箱专家 万部电影无损音乐纪录拷贝 每天更新
3T高品质WAV百度盘下载 全想音响—做最好的人声免费试听耳机还送大礼 学林770史上最美192k音乐播放器 HIFI 数字影音馆(发烧母带音乐视听)
开悦UDFi用七彩虹C4核心 专听交响乐ARTT 9018/DSD512 DAC 8元2TB原厂数码母带百度云下载 hifi耳机 无损播放器 杭州米通淘宝批发零售全新原装正版音像CD
查看: 5493|回复: 326

[原载] (原抓名盘)DECCA 4758616 李赫特演奏舒伯特D894 D575 D840(WAV镜像)

  [复制链接]

该用户从未签到

发表于 2013-2-9 11:42 | 显示全部楼层 |阅读模式
本帖最后由 nuwo512 于 2013-2-9 11:47 编辑

【中文名称】:大师赫特演奏舒伯特
【英文名称】:Richter The Master:Schubert
【艺术家】:里赫特
【发行时间】:2007
【唱片编号】:DECCA 4758616
【唱片片数】:2CD
【音乐格式】:WAV整轨镜像+CUE
【下载类型】:百度度盘
搜狗截图130209_1.jpg 搜狗截图130209_2.jpg
       有人曾说,李赫特演绎的舒伯特是不可多得的珍品,此言的确不虚。很惭愧,我没有听过他的D960,但他的D894是我非常珍爱一首,我手上的是由PHILIPS发行的他晚年的现场录音,我个人觉得在他的录音乃至所有人类钢琴录音中都可称得上一颗魅力独具的明珠,每每听来,无不让我无限感怀。我现在手里的碟有些听不过来了,等过些日子,一定去收他的D960。从他在D894里的表现来看,他的D960很值得期待。 舒伯特的D894又称“梦幻奏鸣曲”,每次聆听,似乎总觉得李赫特的演绎真的就如一场梦幻。开篇的第一乐章,他以极为舒缓的步调走来,也徐徐拉开了他的梦幻曲的幕布,一切显得如此沉静恬淡,突然一声高呼,他,就如一只苍鹰,刺破长空,翱翔入云端,飞去了另一个梦的国度,那柔软、敏感而诗意的栖息之所,在那里他的梦呓、他的思绪,形骸放浪,恣意飘飞,他神驰,我心醉,谁都似乎陷入其中而久久不愿离去。。。渐渐的,乐曲到了第四乐章,他,似乎渐渐中梦幻中醒来,回到现实,在一轮轮无比满足的极乐般的歌唱中,逐渐梦散而曲终。里赫特一直是我非常欣赏的一位钢琴家。对于乐器演奏,特别是单件乐器的奏鸣曲,我觉得就如书法中的楷书或行书,点划之间就很容易显出演绎者的心境和修为,李赫特,无疑是真正的大师,在他的琴声中,不象大部分当代演奏者,我听不到丝毫浮躁与做作,他出于俄罗斯而高于俄罗斯,晚年的他,纯熟的臻入化境的技法,他的才情,他坚强的力量与细腻的情感把握,他舒缓而内在丰富的速度以及触键控制,在演绎舒伯特这部D894时得到了极大的体现。
【专辑曲目】:
CD1
1-4 舒伯特钢琴奏鸣曲D894
CD2
1-4 舒伯特钢琴奏鸣曲D575
5-8 舒伯特钢琴奏鸣曲D840
Exact Audio Copy V1.0 beta 3 from 29. August 2011

EAC 抓取日志文件从7. 二月 2013, 23:48

Schubert, Franz / Klaviersonate D.894 (Sviatoslav Richter)

使用驱动器  :HL-DT-STDVDRAM GH40N   Adapter: 3  ID: 0

读取模式      : 可靠Secure
使用精确流     : 是
清空音频缓存    : 否
使用 C2 指示器 : 否

读取偏移校正:               : 667
读取 Lead-In 和 Lead-Out : 否
用静音填充抓取中丢失偏移的采样       : 是
去除首尾静音块               : 否
在CRC 计算中使用了空样本       : 是
已用接口                  : Win NT 及 2000 本地 Win32 接口

所用输出模式: : 内部 WAV 函数
样本格式    : 44.100 Hz; 16 Bit; 立体声


已抓取 CD 的 TOC

     音轨 |    起始    |    长度    |  起始扇区  |  结束扇区  
    --------------------------------------------
      1 |  0:00.33 | 27:00.00 |     33 | 121532
      2 | 27:00.33 |  8:15.67 | 121533 | 158724
      3 | 35:16.25 |  4:36.08 | 158725 | 179432
      4 | 39:52.33 |  8:15.00 | 179433 | 216557


范围状态及错误

已选择范围

     文件名 E:\1.25\EAC抓轨\新建文件夹\EMI 马勒作品全集 16CD\Schubert, Franz - Klaviersonate D.894 (Sviatoslav Richter).wav

     峰值电平 77.6 %
     抓取速度 2.7 X
     范围质量 99.9 %
     复制 CRC 103449D5
     复制成功

没有错误发生


AccurateRip 摘要

音轨  1  精确地校准抓取  4)  [8E419B31]  (AR v2)
音轨  2  精确地校准抓取  4)  [DC4F4B49]  (AR v2)
音轨  3  精确地校准抓取  4)  [86A5C902]  (AR v2)
音轨  4  精确地校准抓取  4)  [9771B467]  (AR v2)

所有音轨精确校准抓取

状态报告结尾

==== 记录校验日志 FE97F3DD3CCFCB94156FED35C6AC30472BE557084AAABA68DEB1488E1958C275 ====


游客,如果您要查看本帖隐藏内容请回复

评分

参与人数 3音乐币 +128 魅力值 +182 收起 理由
行板如歌 + 50 + 100 原创内容
音乐陶冶人生 + 38 + 38 除夕发帖辛苦!
yuanmu_1987 + 40 + 44 111

查看全部评分

  • TA的每日心情
    开心
    2014-10-30 06:26
  • 签到天数: 65 天

    [LV.6]常住居民II

    发表于 2013-2-9 11:50 | 显示全部楼层
    年三十遇楼主放名碟,福气呀。一定好好欣赏。谢谢,拜年啦!
    回复

    使用道具 举报

  • TA的每日心情
    开心
    2014-10-30 10:34
  • 签到天数: 25 天

    [LV.4]偶尔看看III

    发表于 2013-2-9 13:16 | 显示全部楼层
    谢谢楼主分享李赫特的精品啊
    回复

    使用道具 举报

    该用户从未签到

    发表于 2013-2-9 13:39 | 显示全部楼层
    新年快乐
    谢谢楼主
    回复

    使用道具 举报

  • TA的每日心情
    慵懒
    2014-10-30 11:38
  • 签到天数: 67 天

    [LV.6]常住居民II

    发表于 2013-2-9 13:49 | 显示全部楼层
    新年快乐,谢谢分享优美的音乐!
    回复

    使用道具 举报

    该用户从未签到

    发表于 2013-2-9 14:37 | 显示全部楼层
    谢谢楼主分享李赫特演奏的舒伯特作品,顺祝阖家幸福,新春快乐!
    回复

    使用道具 举报

    该用户从未签到

    发表于 2013-2-9 16:51 | 显示全部楼层
    值此除夕之际祝lz新春快乐万事如意
    回复

    使用道具 举报

  • TA的每日心情
    开心
    2014-8-12 15:59
  • 签到天数: 1 天

    [LV.1]初来乍到

    发表于 2013-2-9 17:50 | 显示全部楼层
    谢谢楼主的新年礼物,大师的演奏先收下了,新年快乐!
    回复

    使用道具 举报

  • TA的每日心情
    开心
    2014-10-30 08:16
  • 签到天数: 75 天

    [LV.6]常住居民II

    发表于 2013-2-9 18:01 | 显示全部楼层
    我也很期待他的D960,谢谢楼主分享好音乐。祝春节快乐,万事如意。
    回复

    使用道具 举报

  • TA的每日心情
    开心
    2014-10-30 08:35
  • 签到天数: 72 天

    [LV.6]常住居民II

    发表于 2013-2-9 19:11 | 显示全部楼层
    听惯了里赫特的舒伯特.别人的听不进去
    回复

    使用道具 举报

    您需要登录后才可以回帖 登录 | 注册

    本版积分规则



    小黑屋|手机版|Archiver|捌零音乐论坛     官方微博
    本站联系方式:QQ:88207160 邮箱:admin@pt80.net

    GMT+8, 2014-10-30 22:22 , Processed in 0.093600 second(s), 24 queries , Gzip On.

    Powered by Discuz! X3.1

    © 2001-2013 Comsenz Inc.

    快速回复 返回顶部 返回列表