frisby 发表于 2018-8-27 19:22

周传雄-2006爱无所不在七夕演唱会 2DVDISO[480P/8.39GB/DVD-ISO/百度]




曲目:

Disc 1
01 演唱会幕后花絮
02 开场VCR
03 上海黑夜黎明(清唱)
04 忘记
05 Talking
06 坏感觉
07 二分之一的爱情
08 我的心太乱
09 Talking
10 快乐练习曲
11 暖风
12 串场VCR
13 星空下
14 组曲1
A.非同寻常 B.爱可以问谁 C.幸福的瞬间 D.永夜 E.回家的我 F.花香 G.哈罗
15 金陵塔
16 灵药
17 寂寞轰炸

Disc 2
1 组曲2
A.再出发 B.寂寞边界 C.离我远一点 D.日期 E.存在 F.我难过 G.有没有一首歌会让你想起我
02 出卖
03 雪在飞
04 给你的歌
05 陪著我一直到世界的尽头
06 串场VCR
07 最后慢舞
08 哈萨雅琪
09 乐手介绍
10 我在身边
11 男人海洋
12 Talking
13 黄昏
ENCORE
14 末班车
15 寂寞沙洲冷
16 特别收录:爱,无所不在 MV








General
Complete name                  : D:\VTS_02_4.VOB
Format                         : MPEG-PS
File size                      : 1 024 MiB
Duration                     : 21 min 21 s
Overall bit rate mode          : Variable
Overall bit rate               : 6 702 kb/s

Video
ID                           : 224 (0xE0)
Format                         : MPEG Video
Format version               : Version 2
Format profile               : Main@Main
Format settings                : CustomMatrix / BVOP
Format settings, BVOP          : Yes
Format settings, Matrix      : Custom
Format settings, GOP         : M=3, N=15
Format settings, picture struc : Frame
Duration                     : 21 min 21 s
Bit rate mode                  : Variable
Bit rate                     : 5 737 kb/s
Maximum bit rate               : 8 968 kb/s
Width                        : 720 pixels
Height                         : 480 pixels
Display aspect ratio         : 4:3
Frame rate                     : 29.970 (30000/1001) FPS
Standard                     : NTSC
Color space                  : YUV
Chroma subsampling             : 4:2:0
Bit depth                      : 8 bits
Scan type                      : Interlaced
Scan order                     : Top Field First
Compression mode               : Lossy
Bits/(Pixel*Frame)             : 0.554
Time code of first frame       : 01:05:27;22
Time code source               : Group of pictures header
GOP, Open/Closed               : Closed
Stream size                  : 876 MiB (86%)

Audio #1
ID                           : 189 (0xBD)-128 (0x80)
Format                         : AC-3
Format/Info                  : Audio Coding 3
Muxing mode                  : DVD-Video
Duration                     : 21 min 21 s
Bit rate mode                  : Constant
Bit rate                     : 448 kb/s
Channel(s)                     : 6 channels
Channel positions            : Front: L C R, Side: L R, LFE
Sampling rate                  : 48.0 kHz
Frame rate                     : 31.250 FPS (1536 SPF)
Bit depth                      : 16 bits
Compression mode               : Lossy
Delay relative to video      : -619 ms
Stream size                  : 68.4 MiB (7%)
Service kind                   : Complete Main

Audio #2
ID                           : 189 (0xBD)-129 (0x81)
Format                         : AC-3
Format/Info                  : Audio Coding 3
Muxing mode                  : DVD-Video
Duration                     : 21 min 21 s
Bit rate mode                  : Constant
Bit rate                     : 192 kb/s
Channel(s)                     : 2 channels
Channel positions            : Front: L R
Sampling rate                  : 48.0 kHz
Frame rate                     : 31.250 FPS (1536 SPF)
Bit depth                      : 16 bits
Compression mode               : Lossy
Delay relative to video      : -523 ms
Stream size                  : 29.3 MiB (3%)
Service kind                   : Complete Main

Audio #3
ID                           : 189 (0xBD)-130 (0x82)
Format                         : AC-3
Format/Info                  : Audio Coding 3
Muxing mode                  : DVD-Video
Duration                     : 21 min 21 s
Bit rate mode                  : Constant
Bit rate                     : 192 kb/s
Channel(s)                     : 2 channels
Channel positions            : Front: L R
Sampling rate                  : 48.0 kHz
Frame rate                     : 31.250 FPS (1536 SPF)
Bit depth                      : 16 bits
Compression mode               : Lossy
Delay relative to video      : -521 ms
Stream size                  : 29.3 MiB (3%)
Service kind                   : Complete Main

Text #1
ID                           : 189 (0xBD)-32 (0x20)
Format                         : RLE
Format/Info                  : Run-length encoding
Muxing mode                  : DVD-Video

Text #2
ID                           : 189 (0xBD)-33 (0x21)
Format                         : RLE
Format/Info                  : Run-length encoding
Muxing mode                  : DVD-Video

Menu



General
Complete name                  : D:\VTS_02_2.VOB
Format                         : MPEG-PS
File size                      : 1 024 MiB
Duration                     : 18 min 6 s
Overall bit rate mode          : Variable
Overall bit rate               : 7 902 kb/s

Video
ID                           : 224 (0xE0)
Format                         : MPEG Video
Format version               : Version 2
Format profile               : Main@Main
Format settings                : CustomMatrix / BVOP
Format settings, BVOP          : Yes
Format settings, Matrix      : Custom
Format settings, GOP         : M=3, N=15
Format settings, picture struc : Frame
Duration                     : 18 min 6 s
Bit rate mode                  : Variable
Bit rate                     : 6 913 kb/s
Maximum bit rate               : 8 968 kb/s
Width                        : 720 pixels
Height                         : 480 pixels
Display aspect ratio         : 4:3
Frame rate                     : 29.970 (30000/1001) FPS
Standard                     : NTSC
Color space                  : YUV
Chroma subsampling             : 4:2:0
Bit depth                      : 8 bits
Scan type                      : Interlaced
Scan order                     : Top Field First
Compression mode               : Lossy
Bits/(Pixel*Frame)             : 0.667
Time code of first frame       : 00:18:51;15
Time code source               : Group of pictures header
GOP, Open/Closed               : Closed
Stream size                  : 895 MiB (87%)

Audio #1
ID                           : 189 (0xBD)-128 (0x80)
Format                         : AC-3
Format/Info                  : Audio Coding 3
Muxing mode                  : DVD-Video
Duration                     : 18 min 6 s
Bit rate mode                  : Constant
Bit rate                     : 448 kb/s
Channel(s)                     : 6 channels
Channel positions            : Front: L C R, Side: L R, LFE
Sampling rate                  : 48.0 kHz
Frame rate                     : 31.250 FPS (1536 SPF)
Bit depth                      : 16 bits
Compression mode               : Lossy
Delay relative to video      : -570 ms
Stream size                  : 58.0 MiB (6%)
Service kind                   : Complete Main

Audio #2
ID                           : 189 (0xBD)-129 (0x81)
Format                         : AC-3
Format/Info                  : Audio Coding 3
Muxing mode                  : DVD-Video
Duration                     : 18 min 6 s
Bit rate mode                  : Constant
Bit rate                     : 192 kb/s
Channel(s)                     : 2 channels
Channel positions            : Front: L R
Sampling rate                  : 48.0 kHz
Frame rate                     : 31.250 FPS (1536 SPF)
Bit depth                      : 16 bits
Compression mode               : Lossy
Delay relative to video      : -506 ms
Stream size                  : 24.9 MiB (2%)
Service kind                   : Complete Main

Audio #3
ID                           : 189 (0xBD)-130 (0x82)
Format                         : AC-3
Format/Info                  : Audio Coding 3
Muxing mode                  : DVD-Video
Duration                     : 18 min 6 s
Bit rate mode                  : Constant
Bit rate                     : 192 kb/s
Channel(s)                     : 2 channels
Channel positions            : Front: L R
Sampling rate                  : 48.0 kHz
Frame rate                     : 31.250 FPS (1536 SPF)
Bit depth                      : 16 bits
Compression mode               : Lossy
Delay relative to video      : -506 ms
Stream size                  : 24.9 MiB (2%)
Service kind                   : Complete Main

Text #1
ID                           : 189 (0xBD)-32 (0x20)
Format                         : RLE
Format/Info                  : Run-length encoding
Muxing mode                  : DVD-Video
Delay relative to video      : -267 ms

Text #2
ID                           : 189 (0xBD)-33 (0x21)
Format                         : RLE
Format/Info                  : Run-length encoding
Muxing mode                  : DVD-Video
Duration                     : 18 min 5 s
Delay relative to video      : -333 ms

Menu


下载地址:
**** Hidden Message *****

qazxc 发表于 2018-8-27 22:18

喜欢周传雄的歌   谢谢分享

zhu829 发表于 2018-8-30 13:53

这个要下载看看,他的演唱会很少见

ouyangwencong 发表于 2018-9-11 14:40

2006爱无所不在七夕演唱会

kuge1025 发表于 2018-9-11 19:30

读初中的时候 我的心太乱很火

jamelovecat 发表于 2018-9-16 12:45

经典无法复制。。。。。。。。

smg小沈 发表于 2018-9-18 23:33

很少见的演唱会    非常出名的时候

oupute 发表于 2018-9-20 07:18

周传雄以前的歌很好听,后来好像病了,变得很瘦。

asucn 发表于 2018-9-20 19:31

以前蛮喜欢他的歌曲,后面就没再听过

sjun1688 发表于 2018-9-25 22:51

谢谢分享,很喜欢小刚的live
页: [1] 2
查看完整版本: 周传雄-2006爱无所不在七夕演唱会 2DVDISO[480P/8.39GB/DVD-ISO/百度]