frisby 发表于 2018-8-26 18:39

Westlife西城男孩十周年演唱会 原盘镜像 2008[576P/DVDISO/7.49G/百度]

本帖最后由 刀光劍影 于 2018-8-27 07:48 编辑



2008年6月1日,Westlife结束了巡演回到爱尔兰,并举办了自出道以来最大的演唱会.刚刚结束的Back Home世界巡演非常成功,乐队在Dublin的Croke Park举行了一场面向82500人的售票演唱会,来庆祝乐队成军10周年,这对于Kian, Mark, Nicky和Shane来说,这绝对是一次难忘的经历.
他们第一次的表演是12岁时在Sligo的Hawkswell剧院完成的,在那次演出中Shane扮演Danny,Kian扮演Kenickie,而Mark扮演Vince,于是,三个小伙子相识了,是上天注定了他们要在一起创造一件了不起的事情。

歌曲目录:
01. Hit You With The Real Thing
02. World Of Our Own
03. Something Right
04. What Makes A Man
05. Uptown Girl
06. Easy Way
07. If I Let You Go
08. Mandy
09. Sexyback / Blame It On The Boogie
10. Get Down On It
11. I'm Your Man
12. Let Me Entertain You
13. I'm Already There
14. Unbreakable
15. Queen Of My Heart
16. Fool Again
17. Catch My Breath
18. Home
19. Us Against The World
20. Swear It Again
21. Flying Without Wings
22. When You're Looking Like That
23. You Raise Me Up







General
Complete name                  : D:\VTS_01_2.VOB
Format                         : MPEG-PS
File size                      : 1 024 MiB
Duration                     : 19 min 58 s
Overall bit rate mode          : Variable
Overall bit rate               : 7 170 kb/s

Video
ID                           : 224 (0xE0)
Format                         : MPEG Video
Format version               : Version 2
Format profile               : Main@Main
Format settings                : CustomMatrix / BVOP
Format settings, BVOP          : Yes
Format settings, Matrix      : Custom
Format settings, GOP         : M=3, N=12
Format settings, picture struc : Frame
Duration                     : 19 min 58 s
Bit rate mode                  : Variable
Bit rate                     : 6 387 kb/s
Maximum bit rate               : 9 160 kb/s
Width                        : 720 pixels
Height                         : 576 pixels
Display aspect ratio         : 16:9
Frame rate                     : 25.000 FPS
Standard                     : PAL
Color space                  : YUV
Chroma subsampling             : 4:2:0
Bit depth                      : 8 bits
Scan type                      : Interlaced
Scan order                     : Top Field First
Compression mode               : Lossy
Bits/(Pixel*Frame)             : 0.616
Time code of first frame       : 10:20:33:14
Time code source               : Group of pictures header
GOP, Open/Closed               : Open
Stream size                  : 912 MiB (89%)

Audio #1
ID                           : 189 (0xBD)-128 (0x80)
Format                         : AC-3
Format/Info                  : Audio Coding 3
Muxing mode                  : DVD-Video
Duration                     : 19 min 57 s
Bit rate mode                  : Constant
Bit rate                     : 192 kb/s
Channel(s)                     : 2 channels
Channel positions            : Front: L R
Sampling rate                  : 48.0 kHz
Frame rate                     : 31.250 FPS (1536 SPF)
Bit depth                      : 16 bits
Compression mode               : Lossy
Delay relative to video      : -136 ms
Stream size                  : 27.4 MiB (3%)
Service kind                   : Complete Main

Audio #2
ID                           : 189 (0xBD)-129 (0x81)
Format                         : AC-3
Format/Info                  : Audio Coding 3
Muxing mode                  : DVD-Video
Duration                     : 19 min 57 s
Bit rate mode                  : Constant
Bit rate                     : 448 kb/s
Channel(s)                     : 6 channels
Channel positions            : Front: L C R, Side: L R, LFE
Sampling rate                  : 48.0 kHz
Frame rate                     : 31.250 FPS (1536 SPF)
Bit depth                      : 16 bits
Compression mode               : Lossy
Delay relative to video      : -232 ms
Stream size                  : 64.0 MiB (6%)
Service kind                   : Complete Main

Menu



General
Complete name                  : D:\VTS_01_1.VOB
Format                         : MPEG-PS
File size                      : 1 024 MiB
Duration                     : 20 min 34 s
Overall bit rate mode          : Variable
Overall bit rate               : 6 956 kb/s

Video
ID                           : 224 (0xE0)
Format                         : MPEG Video
Format version               : Version 2
Format profile               : Main@Main
Format settings                : CustomMatrix / BVOP
Format settings, BVOP          : Yes
Format settings, Matrix      : Custom
Format settings, GOP         : M=3, N=12
Format settings, picture struc : Frame
Duration                     : 20 min 34 s
Bit rate mode                  : Variable
Bit rate                     : 6 178 kb/s
Maximum bit rate               : 9 160 kb/s
Width                        : 720 pixels
Height                         : 576 pixels
Display aspect ratio         : 16:9
Frame rate                     : 25.000 FPS
Standard                     : PAL
Color space                  : YUV
Chroma subsampling             : 4:2:0
Bit depth                      : 8 bits
Scan type                      : Interlaced
Scan order                     : Top Field First
Compression mode               : Lossy
Bits/(Pixel*Frame)             : 0.596
Time code of first frame       : 09:59:59:00
Time code source               : Group of pictures header
GOP, Open/Closed               : Open
GOP, Open/Closed of first fram : Closed
Stream size                  : 909 MiB (89%)

Audio #1
ID                           : 189 (0xBD)-128 (0x80)
Format                         : AC-3
Format/Info                  : Audio Coding 3
Muxing mode                  : DVD-Video
Duration                     : 20 min 33 s
Bit rate mode                  : Constant
Bit rate                     : 192 kb/s
Channel(s)                     : 2 channels
Channel positions            : Front: L R
Sampling rate                  : 48.0 kHz
Frame rate                     : 31.250 FPS (1536 SPF)
Bit depth                      : 16 bits
Compression mode               : Lossy
Delay relative to video      : 1 s 0 ms
Stream size                  : 28.2 MiB (3%)
Service kind                   : Complete Main

Audio #2
ID                           : 189 (0xBD)-129 (0x81)
Format                         : AC-3
Format/Info                  : Audio Coding 3
Muxing mode                  : DVD-Video
Duration                     : 20 min 33 s
Bit rate mode                  : Constant
Bit rate                     : 448 kb/s
Channel(s)                     : 6 channels
Channel positions            : Front: L C R, Side: L R, LFE
Sampling rate                  : 48.0 kHz
Frame rate                     : 31.250 FPS (1536 SPF)
Bit depth                      : 16 bits
Compression mode               : Lossy
Delay relative to video      : 1 s 0 ms
Stream size                  : 65.9 MiB (6%)
Service kind                   : Complete Main

Menu



下载地址:
**** Hidden Message *****

夜冰狼 发表于 2018-8-27 02:25

稀有资源呀,欧美最喜欢的组合,非常好听

xinshangyouni 发表于 2018-8-27 07:02

怀旧 美好的旋律怀旧 美好的旋律

leiba4 发表于 2018-8-30 17:08

果断收藏,谢谢楼主

limingxu 发表于 2018-9-1 15:32

后街男孩的歌我也很喜欢,谢谢分享,辛苦了

zoulibo1984 发表于 2018-9-18 23:13

美好的旋律,谢谢分享

asucn 发表于 2018-9-20 12:14

Hit You With The Real Thing
好听

欢腾海 发表于 2018-10-15 00:00

好音乐 好歌曲收了 TGX~~~~~~
页: [1]
查看完整版本: Westlife西城男孩十周年演唱会 原盘镜像 2008[576P/DVDISO/7.49G/百度]