秦腔小王子 发表于 2018-7-18 17:44

王杰 -《华纳最出色系列精选》卡拉OK[720*576/DVD ISO/3.85G/百度]


专辑中文名: 王杰 - 最出色系列精选
专辑英文名: Dave Wang Best Collection 2007
歌手: 王杰
资源格式: DVDRip
版本: 内嵌繁体中文
发行时间: 2007年02月10日
地区: 香港
语言: 普通话,粤语
内容介绍:


      出道于1987年12月,以专辑《一场游戏一场梦》让王杰成功掳获许多人的心,他总是一身皮衣和破牛仔裤的打扮,镜头前话也不多,在当时树立了有如孤鹰般的特殊气质,个性极度害羞的他,在演唱会上为了强迫自己穿上鲜红色的西装,竟然引发气喘还差点葬送性命…
      香港华纳2007年2月再次发行王杰新的精选集《华纳最出色系列-王杰》,3CD共收录历年最出色、最精彩45首令人回味无穷的精选好歌。包括:《几分伤心几分痴》、《谁明浪子心》、《一无所有》等。《心醉》、《红太阳》更是首次被收在王杰的精选中。赠送DVD收录12首经典Karaoke ,包括《故事的角色》、《心痛》、《今生无悔》等。


专辑曲目:
01.几分伤心几分痴
02.故事的角色
03.今生无悔
04.封锁我一生
05.心痛
06.一无所有 (国)
07.惦记这一些 (国)
08.你是我胸口永远的痛 (国) 王杰, 叶欢
09.安妮 (国)
10.为了爱 梦一生 (国)
11.忘记你不如忘记自己 (国)
12.英雄泪 (国)
13.孤星 (国)
General
Complete name                  : G:\VIDEO_TS\VTS_01_1.VOB
Format                         : MPEG-PS
File size                      : 1 024 MiB
Duration                     : 14 min 33 s
Overall bit rate mode          : Constant
Overall bit rate               : 9 831 kb/s

Video
ID                           : 224 (0xE0)
Format                         : MPEG Video
Format version               : Version 2
Format profile               : Main@Main
Format settings                : CustomMatrix / BVOP
Format settings, BVOP          : Yes
Format settings, Matrix      : Custom
Format settings, GOP         : M=3, N=12
Format settings, picture struc : Frame
Duration                     : 14 min 33 s
Bit rate mode                  : Constant
Bit rate                     : 8 900 kb/s
Width                        : 720 pixels
Height                         : 576 pixels
Display aspect ratio         : 4:3
Frame rate                     : 25.000 FPS
Standard                     : PAL
Color space                  : YUV
Chroma subsampling             : 4:2:0
Bit depth                      : 8 bits
Scan type                      : Interlaced
Scan order                     : Top Field First
Compression mode               : Lossy
Bits/(Pixel*Frame)             : 0.858
Time code of first frame       : 00:01:59:10
Time code source               : Group of pictures header
GOP, Open/Closed               : Open
GOP, Open/Closed of first fram : Closed
Stream size                  : 924 MiB (90%)

Audio #1
ID                           : 189 (0xBD)-128 (0x80)
Format                         : AC-3
Format/Info                  : Audio Coding 3
Muxing mode                  : DVD-Video
Duration                     : 14 min 33 s
Bit rate mode                  : Constant
Bit rate                     : 384 kb/s
Channel(s)                     : 2 channels
Channel positions            : Front: L R
Sampling rate                  : 48.0 kHz
Frame rate                     : 31.250 FPS (1536 SPF)
Bit depth                      : 16 bits
Compression mode               : Lossy
Stream size                  : 40.0 MiB (4%)
Service kind                   : Complete Main

Audio #2
ID                           : 189 (0xBD)-129 (0x81)
Format                         : AC-3
Format/Info                  : Audio Coding 3
Muxing mode                  : DVD-Video
Duration                     : 14 min 33 s
Bit rate mode                  : Constant
Bit rate                     : 384 kb/s
Channel(s)                     : 2 channels
Channel positions            : Front: L R
Sampling rate                  : 48.0 kHz
Frame rate                     : 31.250 FPS (1536 SPF)
Bit depth                      : 16 bits
Compression mode               : Lossy
Stream size                  : 40.0 MiB (4%)
Service kind                   : Complete Main

Menu


下载地址:
**** Hidden Message *****


zlmdalian 发表于 2018-7-22 21:00

多谢楼主分享 王杰的歌唱得很好听 下来看看!

yaya82 发表于 2018-7-24 13:05

多谢楼主分享         

lnne 发表于 2018-7-24 22:05

好歌难找,谢谢了!!!

beyondnj 发表于 2018-7-28 17:46

adafasgdsagassdfgegasdga

qkhscy 发表于 2018-7-31 09:20

下载来听听         

yakushima 发表于 2018-8-3 23:11

谢谢分享,很喜欢王杰早期的作品~:handshake:$

tangyy 发表于 2018-8-5 08:27

谢谢LZ,辛苦

eeguna 发表于 2018-8-5 15:10

非常感谢,经典的必须下载

zhuxiaobing 发表于 2018-8-7 07:40

王杰还是值得下载的,谢谢分享
页: [1] 2 3 4 5 6
查看完整版本: 王杰 -《华纳最出色系列精选》卡拉OK[720*576/DVD ISO/3.85G/百度]