秦腔小王子 发表于 2018-7-3 23:36

[原创首发]秦腔青年演员魏娟秦腔唱段集锦 DVD原盘[720P/VOB/3.86G/百度]

本帖最后由 秦腔小王子 于 2018-7-3 23:36 编辑

今天整理办公室翻出来了这张DVD,索性发出供大家欣赏,之前发过魏娟唱段集锦CD。专辑曲目:
1.碗碗腔《金碗钗》选段
桃园借水
2.秦腔《三堂会审》选段
打发公子出院门
3.秦腔《藏舟》选段
耳听得谯楼上二更四点
4.秦腔《三滴血》选段
兄弟窗前把书念
5.秦腔《花木兰》选段
劝爹爹放宽心村头站稳
6.秦腔《窦娥冤》选段
忘不了你把我儿女看待
7.秦腔《探窑》选段
老娘请坐听儿言
8.秦腔《于无声处》选段
你可知是谁把你害
9.秦腔《三回头》选段
此时候倒叫我于心不忍
10.眉户《迟开的玫瑰》选段
弟妹们莫要淌热泪
General
Complete name                  : D:\新建文件夹 (4)\VIDEO_TS\VTS_05_1.VOB
Format                         : MPEG-PS
File size                      : 233 MiB
Duration                     : 3 min 48 s
Overall bit rate mode          : Variable
Overall bit rate               : 8 524 kb/s

Video
ID                           : 224 (0xE0)
Format                         : MPEG Video
Format version               : Version 2
Format profile               : Main@Main
Format settings                : CustomMatrix / BVOP
Format settings, BVOP          : Yes
Format settings, Matrix      : Custom
Format settings, GOP         : M=3, N=15
Format settings, picture struc : Frame
Duration                     : 3 min 48 s
Bit rate mode                  : Variable
Bit rate                     : 7 970 kb/s
Maximum bit rate               : 9 610 kb/s
Width                        : 720 pixels
Height                         : 576 pixels
Display aspect ratio         : 4:3
Frame rate                     : 25.000 FPS
Standard                     : PAL
Color space                  : YUV
Chroma subsampling             : 4:2:0
Bit depth                      : 8 bits
Scan type                      : Interlaced
Scan order                     : Top Field First
Compression mode               : Lossy
Bits/(Pixel*Frame)             : 0.769
Time code of first frame       : 00:00:00:00
Time code source               : Group of pictures header
Stream size                  : 217 MiB (94%)

Audio
ID                           : 192 (0xC0)
Format                         : MPEG Audio
Format version               : Version 1
Format profile               : Layer 2
Duration                     : 3 min 48 s
Bit rate mode                  : Constant
Bit rate                     : 384 kb/s
Channel(s)                     : 2 channels
Sampling rate                  : 48.0 kHz
Frame rate                     : 41.667 FPS (1152 SPF)
Compression mode               : Lossy
Delay relative to video      : 16 ms
Stream size                  : 10.5 MiB (5%)

Menu










下载地址:**** Hidden Message *****
解压密码:
**** Hidden Message *****
相关链接:
【论坛原创】秦腔 青年演员魏娟唱腔集锦 原抓1CD

lddtd162833 发表于 2018-7-5 15:21

笑着回忆!笑着祝福!多谢!

qq1021543379 发表于 2018-8-8 20:19

下部戏曲来听听,感谢分享

chenghua992 发表于 2018-8-17 06:49

难得戏曲资源,谢谢分享!

ounm559 发表于 2018-8-24 12:03

笑着回忆!笑着祝福!多谢

三毛箭 发表于 2018-8-30 08:40

没有听过秦腔,学习学习。

hongfangzi 发表于 2018-8-31 12:16

经典!好资源,谢谢楼主!

h3333 发表于 2018-10-5 12:29

感谢分享 大秦帝国的戏曲

小彬哥哥 发表于 2018-10-5 19:21

给老人找找,谢谢楼主了.

小车王 发表于 2018-10-6 10:12

珍贵资源,谢谢分享!
页: [1] 2
查看完整版本: [原创首发]秦腔青年演员魏娟秦腔唱段集锦 DVD原盘[720P/VOB/3.86G/百度]