aishang高清 发表于 2017-11-29 21:42

Modern Talking - The Final Album 2003[576I/DVDISO/4.35G/百度云]

本帖最后由 aishang高清 于 2018-1-27 19:48 编辑

专辑中文名: 最终专辑
专辑英文名: The Final Album
歌手: Modern Talking
资源格式: DVDISO
发行时间: 2003年
地区: 德国
语言: 德语
简介:

内容介绍:
  来自柏林的Modern Talking成立于1983年,团员包括作曲者兼制作人Dieter Bohlen以及当时堪称〈少女杀手〉的俊美主唱Thomas Anders两人,是欧洲着名的舞曲组合,许多歌曲脍炙人口,成为八○年代中期欧陆舞曲乐坛的唯一代名词。翻唱成中文的一曲“路灯下的小姑娘”当年也曾风靡全中国。

  但是好景不长,两人于1987年分道扬镳。单飞后两人都没有成功过,在1998年两人又重组。并重新演绎了多首成名单曲.

  此DVD发行于2003年。命名为The Final Album - The Ultimate DVD。里面收集了Modern Talking的多首着名歌曲的MV,是歌迷们不可多得的收藏珍品.

专辑曲目:
01. You're My Heart, You're My Soul
02. You Can Win If You Want
03. Chery Chery Lady
04. Brother Louie
05. Atlantis Is Calling
06. Geronimo's Cadillac
07. Give Me Peace On Earth
08. Jet airliner
09. In 100 Years
10. You're My Heart, You're My Soul '98
11. Brother Louie '98
12. You Are Not Alone
13. Sexy Sexy Lover
14. China In Her Eyes
15. Don't Take Away My Heart
16. Win The Race
17. Last Exit To Brooklyn
18. Ready For The Victory
19. Juliet
20. TV Makes The Superstar





General
Complete name                  : G:\VIDEO_TS\VTS_01_3.VOB
Format                         : MPEG-PS
File size                      : 689 MiB
Duration                     : 3mn 40s
Overall bit rate mode          : Variable
Overall bit rate               : 26.3 Mbps

Video
ID                           : 224 (0xE0)
Format                         : MPEG Video
Format version               : Version 2
Format profile               : Main@Main
Format settings, BVOP          : Yes
Format settings, Matrix      : Default
Format settings, GOP         : M=3, N=13
Format settings, picture struc : Frame
Duration                     : 3mn 39s
Bit rate mode                  : Variable
Bit rate                     : 23.7 Mbps
Maximum bit rate               : 7 800 Kbps
Width                        : 720 pixels
Height                         : 576 pixels
Display aspect ratio         : 4:3
Frame rate                     : 25.000 fps
Standard                     : PAL
Color space                  : YUV
Chroma subsampling             : 4:2:0
Bit depth                      : 8 bits
Scan type                      : Interlaced
Scan order                     : Top Field First
Compression mode               : Lossy
Bits/(Pixel*Frame)             : 2.290
Time code of first frame       : 10:58:03:04
Time code source               : Group of pictures header
GOP, Open/Closed               : Open
Stream size                  : 623 MiB (90%)
Color primaries                : BT.601 PAL
Transfer characteristics       : BT.470 System B, BT.470 System G
Matrix coefficients            : BT.601

Audio #1
ID                           : 189 (0xBD)-128 (0x80)
Format                         : AC-3
Format/Info                  : Audio Coding 3
Mode extension               : CM (complete main)
Format settings, Endianness    : Big
Muxing mode                  : DVD-Video
Duration                     : 3mn 40s
Bit rate mode                  : Constant
Bit rate                     : 448 Kbps
Channel(s)                     : 6 channels
Channel positions            : Front: L C R, Side: L R, LFE
Sampling rate                  : 48.0 KHz
Frame rate                     : 31.250 fps (1536 spf)
Compression mode               : Lossy
Delay relative to video      : -120ms
Stream size                  : 11.7 MiB (2%)

Audio #2
ID                           : 189 (0xBD)-161 (0xA1)
Format                         : PCM
Format settings, Endianness    : Big
Format settings, Sign          : Signed
Muxing mode                  : DVD-Video
Duration                     : 3mn 40s
Bit rate mode                  : Constant
Bit rate                     : 1 536 Kbps
Channel(s)                     : 2 channels
Sampling rate                  : 48.0 KHz
Bit depth                      : 16 bits
Delay relative to video      : -177ms
Stream size                  : 40.3 MiB (6%)

Text
ID                           : 189 (0xBD)-32 (0x20)
Format                         : RLE
Format/Info                  : Run-length encoding
Muxing mode                  : DVD-Video
Delay relative to video      : 2s 680ms

Menu
http://player.yinyuetai.com/video/player/26044/v_0.swf
解压密码:ASGQ.@.www.pt80.net
**** Hidden Message *****


zkb185 发表于 2017-11-30 18:52

好激烈的节奏,谢谢楼主分享

cjj588 发表于 2017-12-1 09:26

这个必须强烈支持,非常感谢

nuaa 发表于 2017-12-2 13:37

可惜没有积分,看不了。但必须支持,好怀旧~

bao8happy 发表于 2017-12-5 06:28

谢谢分享现代语录DVD,楼主辛苦了

血仍未冷 发表于 2017-12-9 10:45

非常经典的舞曲,多谢楼主分享

珑之妞 发表于 2017-12-9 23:04

这个必须要收藏,感谢分享了

xxttcc 发表于 2017-12-10 00:26

感谢楼主无私的及时分享好片,非常感激的收下了哈~~

xiaoqi21 发表于 2017-12-13 00:39

路灯下的小姑娘的原唱啊,这个很喜欢,谢谢发布!

awaylee 发表于 2017-12-19 10:59

经典的视频,谢谢分享!
页: [1] 2 3 4
查看完整版本: Modern Talking - The Final Album 2003[576I/DVDISO/4.35G/百度云]