dwdwweii 发表于 2017-10-16 13:01

【自由原创】魯賓斯坦《肖邦夜曲》企鵝唱片指南三星帶花日本唱片藝術最佳名曲【Wav...

本帖最后由 dwdwweii 于 2018-2-23 06:45 编辑



专辑名称:The Chopin Collection, The Nocturnes 肖邦 十九首夜曲 全集
作曲:Fryderyk Chopin
演奏:Arthur Rubinstein
音乐类别:古典/钢琴
唱片公司:RCA
发行地区:USA(香港地区)
发行版本:索尼BMG
发行时间:1967/1984
资源格式:WAV整轨/全扫描
资源出处:Dwdwweii
專輯介紹:


肖邦夜曲 魯賓斯坦(两首试听)
肖邦夜曲CD1.01 Nocturne No. 1, Op. 9 in B-flat
肖邦夜曲CD2.04 Nocturnes (2) for piano, Op. 48, CT. 120-121- Nocturne No. 2 in F-Sharp Minor
http://pan.baidu.com/s/1nvcbmnJ


企鵝唱片指南三星帶花
日本《唱片藝術》最佳名曲
夜曲是蕭邦自己創新的一種鋼琴獨奏體裁,它具有沖淡平和,寂靜幽瀾的特點,輕緩中偶爾透著那麽一點點沈思。魯賓斯坦的演奏在良好的節奏把握中自然追求的一種完整性與統一性,你忘記了樂曲何時開始,而不經意之間在你的陶醉感消泯之前樂曲卻已悄然結束。就是這麽讓人充滿期待,卻又戀戀不捨。
要想認識鋼琴詩人的浪漫氣質,領略鋼琴詩的獨特韻致,蕭邦的作品是當之無愧的首選,蕭邦似乎命裏注定是爲鋼琴而生的,在他的指下,鋼琴以自己獨有的聲音詩意地吟唱起來,音樂的個性與鋼琴的特性如水乳交融一樣和諧。我們不妨先從夜曲聽起,細細體會樂曲中所彌漫的惆悵、瞑想、繾綣氣氛,以及其中包含的激動、歎息、興奮、不安等豐富而微妙的情緒。你會感到夜晚的風格是統一的,而夜中的情調又是如此得不同。
關於此套CD的彈奏者——20世紀權威的美籍波蘭鋼琴演奏大師阿圖爾.魯賓斯坦,他是最權威的演繹蕭邦作品的專家、“真正的邦蕭代言人”。魯賓斯坦是蕭邦的同胞,也特別鍾情于蕭邦的作品。他琴鍵上表現出的蕭邦是一個精神健康、格調高貴,作品充滿激情與豐富內涵的音樂家。他演奏的夜曲,飽滿平衡,將蕭邦獨特的自由速度、不規則的重音、驚人的極強音、沮喪的漸弱音、極弱音等等都表現得無微不至,在若有若無的憂鬱中透著深邃的意境。他寬大的心胸,無盡的勇氣,永不言止的闖蕩,使他的演奏洋溢著海闊天空、上爲日月、下爲河嶽的浩瀚感性。他的演奏不僅具有超人的技巧和獨到的見解,而且還賦予樂曲以深邃的內涵,所以,魯賓斯坦的演奏是:情到時,金石爲開。他的活力、靈感,對生命的熱愛,和優雅瀟灑的容態,都給精研在他的音樂裏,毫無保留地獻給了世人。
這絕對是魯賓斯坦最值得推薦的作品,也是他獨奏唱片中的最佳錄音。魯賓斯坦是個音色的魔術師,不僅在樂曲的詮釋上完美地呈現出作曲者的內涵,章句的處理和對時間拿捏的技巧也已隨心所欲,輕易地擄掠了每一位聽者的心。

專輯曲目:
CD1
      01. Nocturne No. 1 in B flat minor, op. 9, no. 1 05:25
  02. Nocturne No. 2 in E flat major, op. 9, no. 2 04:26
  03. Nocturne No. 3 in B major, op. 9, no. 3 06:47
  04. Nocturne No. 4 in F major, op. 15, no. 1 04:20
  05. Nocturne No. 5 in F sharp major, op. 15, no. 2 03:56
  06. Nocturne No. 6 in G minor, op. 15, no. 3 05:03
  07. Nocturne No. 7 in C sharp minor, op. 27, no. 1 05:38
  08. Nocturne No. 8 in D flat major, op. 27, no. 2 06:13
  09. Nocturne No. 9 in B major, op. 32, no. 1 04:42
  10. Nocturne No. 10 in A flat major, op. 32, no. 2 05:46

CD2
  01. Nocturne No. 11 in G Minor, op. 37, no. 1 06:19
  02. Nocturne No. 12 in G Major, op. 37, no. 2 06:52
  03. Nocturne No. 13 in C Minor, op. 48, no. 1 05:52
  04. Nocturne No. 14 in F# Minor, op. 48, no. 2 07:18
  05. Nocturne No. 15 in F Minor, op. 55, no. 1 05:41
  06. Nocturne No. 16 in Eb Major, op. 55, no. 2 05:50
  07. Nocturne No. 17 in B Major, op. 62, no. 1 06:50
  08. Nocturne No. 18 in E Major, op. 62, no. 2 05:18
  09. Nocturne No. 19 in E Minor, op. 72, no. 1 04:42

********************************************************************************************************************************************************

Exact Audio Copy V1.0 beta 3 from 29. August 2011

EAC extraction logfile from 14. June 2015, 20:20

Artur Rubinstein / The Chopin Collection, Nocturnes Disc 1

Used drive: YAMAHACRW-F1E   Adapter: 3ID: 0

Read mode               : Secure
Utilize accurate stream : Yes
Defeat audio cache      : Yes
Make use of C2 pointers : No

Read offset correction                      : 733
Overread into Lead-In and Lead-Out          : No
Fill up missing offset samples with silence : Yes
Delete leading and trailing silent blocks   : No
Null samples used in CRC calculations       : Yes
Used interface                              : Native Win32 interface for Win NT & 2000

Used output format : Internal WAV Routines
Sample format      : 44.100 Hz; 16 Bit; Stereo


TOC of the extracted CD

   Track |   Start|Length| Start sector | End sector
    ---------------------------------------------------------
      1|0:00.00 |5:27.29 |         0    |    24553   
      2|5:27.29 |4:26.49 |   24554    |    44552   
      3|9:54.03 |6:50.08 |   44553    |    75310   
      4| 16:44.11 |4:20.63 |   75311    |    94873   
      5| 21:04.74 |3:58.00 |   94874    |   112723   
      6| 25:02.74 |5:05.00 |    112724    |   135598   
      7| 30:07.74 |5:39.72 |    135599    |   161095   
      8| 35:47.71 |6:16.16 |    161096    |   189311   
      9| 42:04.12 |4:43.03 |    189312    |   210539   
       10| 46:47.15 |5:44.63 |    210540    |   236402   


Range status and errors

Selected range

   Filename C:\The Chopin Collection, Nocturnes\CD1\Artur Rubinstein - The Chopin Collection, Nocturnes Disc 1.wav

   Peak level 87.6 %
   Extraction speed 1.9 X
   Range quality 99.9 %
   Test CRC 8DF890DF
   Copy CRC 8DF890DF
   Copy OK

No errors occurred


AccurateRip summary

Track1not present in database
Track2not present in database
Track3not present in database
Track4not present in database
Track5not present in database
Track6not present in database
Track7not present in database
Track8not present in database
Track9not present in database
Track 10not present in database

None of the tracks are present in the AccurateRip database

End of status report

==== Log checksum F877EDDF1A257F8CD5C478B9E7F8DC2D67A029E9B74D8B8E8B60CFEA1CFACFF3 ====

********************************************************************************************************************************************************
Exact Audio Copy V1.0 beta 3 from 29. August 2011

EAC extraction logfile from 14. June 2015, 21:23

Artur Rubinstein / The Chopin Collection, Nocturnes Disc 2

Used drive: YAMAHACRW-F1E   Adapter: 3ID: 0

Read mode               : Secure
Utilize accurate stream : Yes
Defeat audio cache      : Yes
Make use of C2 pointers : No

Read offset correction                      : 733
Overread into Lead-In and Lead-Out          : No
Fill up missing offset samples with silence : Yes
Delete leading and trailing silent blocks   : No
Null samples used in CRC calculations       : Yes
Used interface                              : Native Win32 interface for Win NT & 2000

Used output format : Internal WAV Routines
Sample format      : 44.100 Hz; 16 Bit; Stereo


TOC of the extracted CD

   Track |   Start|Length| Start sector | End sector
    ---------------------------------------------------------
      1|0:00.00 |6:22.36 |         0    |    28685   
      2|6:22.36 |6:55.14 |   28686    |    59824   
      3| 13:17.50 |5:56.10 |   59825    |    86534   
      4| 19:13.60 |7:20.25 |   86535    |   119559   
      5| 26:34.10 |5:40.64 |    119560    |   145123   
      6| 32:14.74 |5:48.52 |    145124    |   171275   
      7| 38:03.51 |6:51.20 |    171276    |   202120   
      8| 44:54.71 |5:20.68 |    202121    |   226188   
      9| 50:15.64 |4:44.03 |    226189    |   247491   


Range status and errors

Selected range

   Filename C:\The Chopin Collection, Nocturnes\CD2\Artur Rubinstein - The Chopin Collection, Nocturnes Disc 2.wav

   Peak level 90.4 %
   Extraction speed 2.0 X
   Range quality 100.0 %
   Test CRC DA273462
   Copy CRC DA273462
   Copy OK

No errors occurred


AccurateRip summary

Track1not present in database
Track2not present in database
Track3not present in database
Track4not present in database
Track5not present in database
Track6not present in database
Track7not present in database
Track8not present in database
Track9not present in database

None of the tracks are present in the AccurateRip database

End of status report

==== Log checksum 37EBE4C186C37018367276FD8213962695E9D83970E403824067C18EC663D234 ====




◎ 本原抓作品僅用於試聽,嚴禁用於任何商業用途!
◎ 請於試聽後24小時內刪除,如果喜歡請自覺購買正版光碟!
◎ Dwdwweii發佈的原抓作品,未經允許謝绝轉載,謝謝!
◎ 本音樂版權歸唱片公司和歌手所有,如侵犯您的權益,請通知我,我將及時刪除。

**** Hidden Message *****

dwdwweii 发表于 2017-10-16 13:05

本帖最后由 dwdwweii 于 2018-2-23 06:47 编辑


:victory:

cheng713 发表于 2017-10-16 13:38

谢谢分享好音乐。

莫凡2233 发表于 2017-10-16 13:56

这盘是钢琴名盘收藏了。鲁宾斯坦的钢琴轻盈 舒缓赋予意境。

istock8 发表于 2017-10-16 14:07

这盘是钢琴名盘收藏洗版

vwyc97 发表于 2017-10-16 14:11

这2张唱片是名盘中的名盘,非常感谢杜版。

chyem 发表于 2017-10-16 15:01

感谢版主分享鲁宾斯坦的钢琴

newsmilecn 发表于 2017-10-16 15:20

这碟不错必有收藏,谢谢楼主分享。

zuoftr 发表于 2017-10-16 15:36

谢谢分享精彩好音乐~~~

musicdiger 发表于 2017-10-16 17:21

谢谢!辛苦!
页: [1] 2 3 4 5 6 7 8 9 10
查看完整版本: 【自由原创】魯賓斯坦《肖邦夜曲》企鵝唱片指南三星帶花日本唱片藝術最佳名曲【Wav...