dwdwweii 发表于 2017-1-18 03:32

【原创】阿卡多-名琴四季JVC20BIT-K2-XRCD-@dwdwweii【FLAC-BD】

本帖最后由 dwdwweii 于 2017-1-18 03:44 编辑


◎ 本原抓作品僅用於試聽,嚴禁用於任何商業用途!
◎ 請於試聽後24小時內刪除,如果喜歡請自覺購買正版光碟!
◎ Dwdwweii發佈的原抓作品,欢迎轉載各大PT及音樂论坛。,謝謝
◎ 请在帖子顶部注明出处及作者,并保留后缀。
◎ 本音樂版權歸唱片公司和歌手所有,如侵犯您的權益,請通知我,我將及時刪除。
http://p1.bpimg.com/520297/f2c9c54e64ad17d9.jpg
http://p1.bpimg.com/520297/601c7911a275e034.jpg
http://p1.bpimg.com/520297/5ff0da2d02efceed.jpg

【专辑名称】:名琴四季 Vivaldi The Four Seasons Salvatore Accardo
【专辑演奏】:阿卡多 Salvatore Accardo
【专辑出版】:UNIVERSAL/PHILIPS/1988
【专辑日期】:2001
【专辑版本】:JVC/20BIT/K2/XRCD
【专辑格式】:FLAC分轨/扫描
【专辑出处】:Dwdwweii
【专辑简介】
《企鹅唱片指南》三星带花名版。
  又是一张一代名盘,四季必听必搜的版本,阿卡多用四只史特拉底名琴演奏四季,是发烧友必备的一张古典名盘。
  阿卡多版的四季音色讲究,悠扬,除第一小提琴之外,另一个角色起到了至关重要的作用——羽管键琴(布鲁诺·卡尼诺),在许多时候小提琴与羽管键琴处于平等的位置,个别乐句中它甚至单独发挥作用。阿卡多版注重音色,这正迎合了“春”的诗句要求:阿卡多演奏速度偏慢,加之稍强的羽管键琴,使人感觉春意融融,暖风拂面;以G弦模拟鸟儿的叫声靓丽悦耳。在“夏”的第一、二乐章和“秋”的第二乐章中,作为独奏家的阿卡多显示出了强劲的实力,他右手的运弓非常有力度。

专辑曲目:

CD: Salvatore Accardo - Vivaldi: The Four Seasons, 2 Concertos (Accardo)XRCD

01. Concerto No. 1 in E major, Op. 8, Spring - Allegro   
02. Concerto No. 1 in E major, Op. 8, Spring - Largo   
03. Concerto No. 1 in E major, Op. 8, Spring - Allegro (Danza pastorale)   
04. Concerto No. 2 in G minor, Op. 8, Summer - Allegro non molto   
05. Concerto No. 2 in G minor, Op. 8, Summer - Allegro   
06. Concerto No. 2 in G minor, Op. 8, Summer - Adagio-Presto-Adagio   
07. Concerto No. 2 in G minor, Op. 8, Summer - Presto (Tempo impetuoso d'este)   
08. Concerto No. 3 in F major, Op. 8, Autumn - Allegro (Ballo, e canto de' villanelli)   
09. Concerto No. 3 in F major, Op. 8, Autumn - Adagio molto (Ubriachi dormienti)   
10. Concerto No. 3 in F major, Op. 8, Autumn - Allegro (La caccia)   
11. Concerto No. 4 in F minor, Op. 8, Winter - Allegro non molto   
12. Concerto No. 4 in F minor, Op. 8, Winter - Largo   
13. Concerto No. 4 in F minor, Op. 8, Winter - Allegro   
14. Concerto for 4 Violins in B minor, RV 580, Allegro   
15. Concerto for 4 Violins in B minor, RV 580, Largo   
16. Concerto for 4 Violins in B minor, RV 580, Larghetto-Adagio-Largo-Allegro   
17. Concerto for 3 Violins in F major, RV 551, Allegro   
18. Concerto for 3 Violins in F major, RV 551, Andante   
19. Concerto for 3 Violins in F major, RV 551, (Allegro)   
*****************************************************************************************

Exact Audio Copy V1.0 beta 3 from 29. August 2011

EAC extraction logfile from 7. June 2015, 23:29

Salvatore Accardo / Vivaldi: The Four Seasons, 2 Concertos (Accardo)XRCD

Used drive: YAMAHACRW-F1E   Adapter: 3ID: 0

Read mode               : Secure
Utilize accurate stream : Yes
Defeat audio cache      : Yes
Make use of C2 pointers : No

Read offset correction                      : 733
Overread into Lead-In and Lead-Out          : No
Fill up missing offset samples with silence : Yes
Delete leading and trailing silent blocks   : No
Null samples used in CRC calculations       : Yes
Used interface                              : Native Win32 interface for Win NT & 2000

Used output format : Internal WAV Routines
Sample format      : 44.100 Hz; 16 Bit; Stereo


TOC of the extracted CD

   Track |   Start|Length| Start sector | End sector
    ---------------------------------------------------------
      1|0:00.00 |3:49.50 |         0    |    17224   
      2|3:49.50 |2:38.52 |   17225    |    29126   
      3|6:28.27 |4:32.35 |   29127    |    49561   
      4| 11:00.62 |1:05.38 |   49562    |    54474   
      5| 12:06.25 |4:21.57 |   54475    |    74106   
      6| 16:28.07 |2:22.68 |   74107    |    84824   
      7| 18:51.00 |2:51.37 |   84825    |    97686   
      8| 21:42.37 |5:34.33 |   97687    |   122769   
      9| 27:16.70 |2:45.70 |    122770    |   135214   
       10| 30:02.65 |3:37.60 |    135215    |   151549   
       11| 33:40.50 |3:13.35 |    151550    |   166059   
       12| 36:54.10 |2:24.65 |    166060    |   176924   
       13| 39:19.00 |3:07.00 |    176925    |   190949   
       14| 42:26.00 |4:14.00 |    190950    |   209999   
       15| 46:40.00 |1:12.00 |    210000    |   215399   
       16| 47:52.00 |5:07.00 |    215400    |   238424   
       17| 52:59.00 |5:24.35 |    238425    |   262759   
       18| 58:23.35 |2:25.00 |    262760    |   273634   
       19| 60:48.35 |3:14.40 |    273635    |   288224   


Range status and errors

Selected range

   Filename C:\Salvatore Accardo Vivaldi The Four Seasons 2 Concertos Accardo(XRCD 1987)\Salvatore Accardo - Vivaldi- The Four Seasons, 2 Concertos (Accardo)XRCD.wav

   Peak level 97.9 %
   Extraction speed 2.1 X
   Range quality 100.0 %
   Test CRC E131C0E3
   Copy CRC E131C0E3
   Copy OK

No errors occurred


AccurateRip summary

Track1not present in database
Track2not present in database
Track3not present in database
Track4not present in database
Track5not present in database
Track6not present in database
Track7not present in database
Track8not present in database
Track9not present in database
Track 10not present in database
Track 11not present in database
Track 12not present in database
Track 13not present in database
Track 14not present in database
Track 15not present in database
Track 16not present in database
Track 17not present in database
Track 18not present in database
Track 19not present in database

None of the tracks are present in the AccurateRip database

End of status report

==== Log checksum FCFDEAF174FF0A9D004D22362F9718FE23A1DD340167A38B49E7E690FC5DD867 ====







**** Hidden Message *****

http://pan.baidu.com/s/1jHKr8SQ

liuzhuang1964 发表于 2017-1-18 08:58

有了这张无损,不过比特率太低,希望这张能是高的,谢谢!

cclpgx 发表于 2017-1-18 10:02

非常好碟,谢谢您!

fkjohnny 发表于 2017-1-18 10:43

出神入化的四季演奏,謝謝樓主分享

yoy 发表于 2017-1-18 12:29

音质很发烧,感谢分享

q9227348 发表于 2017-1-19 19:47

好资源,一定要下来好好欣赏!

lsqy12345 发表于 2017-1-19 23:42

试听效果一流谢谢

philip399 发表于 2017-1-20 15:01

听了很多版本都不是很如意,谢谢楼主提供这个版本

luxiaoping 发表于 2017-1-21 08:36

雅马哈F1的抓轨,太喜欢了!非常感谢!

chenglie58 发表于 2017-1-21 15:24

谢谢楼主提供这个版本
页: [1] 2 3 4 5 6 7 8 9 10
查看完整版本: 【原创】阿卡多-名琴四季JVC20BIT-K2-XRCD-@dwdwweii【FLAC-BD】