fammac 发表于 2015-7-27 16:12

(原抓)海布勒 莫扎特钢琴协奏曲全集 德国/三洋老版 10CD (WAV分轨+度盘)

本帖最后由 fammac 于 2015-7-27 20:24 编辑

专辑英文名:Mozart Complete Piano Concertos - Ingrid Haebler - Sir Colin Davis, Witold Rowicki, Alceo Galliera, Eduard Melkus

专辑中文名:海布勒 莫扎特钢琴协奏曲专辑

编号:PHILIPS 454 352-2

录音时间:1965, 1966, 1967, 1968, 1974

发行时间:1996

专辑内容:1-27钢琴协奏曲+2 Rondo

版本:M&L胶圈*2, M&L半银圈*3,PMDC*3, Made in Germany (无ifpi)*2 【混有三张三洋无ifpi】

格式:wav分轨

下载:百度网盘

写在前面:

本人经过大量的聆听实践极其喜欢老版CD的音质。我也尽量希望能分享老版,让80论坛的朋友更能感受到老版音色缘何好。但毕竟这是极其主观的事,所以听不出来也无所谓啦......只要喜欢古典音乐就好(所以非金耳可以无视下面的话...)

金耳测试请进:这一套开始一共是10CD(后来买进3张三洋),是我在没有版位知识时买的,开始觉得十分后悔(那么多M&L......)。后来觉得这是一个测试个人听感的绝佳机会,毕竟从M&L胶圈一直到三洋的这样的版本跨度还是不多见的。看看各位有能力发烧友能否凭借自己的听感分辨出来,也可以顺便检验一下古典音乐CD是否真的有版位问题(反正我是信了)。请有能力的发烧友自行尝试(当然听不出来或没有版位知识的无视就好....)。欢迎各位交流分享!

专辑实拍:





专辑介绍:

海布勒:

Ingrid Haebler (1929-),奥地利女钢琴家,父母为波兰人,11岁在萨尔茨堡公开演奏,在萨尔茨堡莫扎特音乐学院学习,后进维也纳音乐学院、日内瓦音乐学院、巴黎音乐学院深造,是玛格丽特·隆班上的学生。1952年参加日内瓦国际钢琴比赛获二等奖,1954年参加慕尼黑国际钢琴比赛和日内瓦舒伯特钢琴比赛,均获一等奖。海布勒的演奏追求一种清新、清纯的效果,追求音色的微妙层次区分与音阶性经过句中颗粒型音色的效果。海布勒好像天生是为演奏莫扎特而出生的,她从小在莫扎特的氛围中长大.她演奏的莫扎特,无论是协奏曲、奏鸣曲还是小品,都被认为是最有味道的莫扎特。她所演奏的舒伯特全套奏鸣曲以及与格吕米奥三重奏团合作的《鳟鱼》.也被认为是最有味道的舒伯特。

从60年代中后期,和科林·戴维斯爵士/伦敦交响乐团合作的钢琴协奏曲中,不难发现海布勒对于莫扎特作品的独一无二的诠释——对她来说,热情洋溢的诠释不是恒久之道,除非作曲家在乐谱上有明确实际的指示。海布勒从不让自己去“逼迫”或去“侵害”作品本身的一丝一毫。她演奏的任何一个乐句或乐章,都像是在“操控木偶”,而且她深知自己的“木偶”非常优雅与脆弱。她也知道所有音乐的生命,都悬挂在手上的这条“丝线”上,过份的曲解与夸张,只会让音乐受到束缚,会与莫扎特的“天籁本质”相抵触。因此,这些钢琴协奏曲中,任何戏剧性、激烈或深沈的效果,似乎都来自作品本身的需求,而且都像是经过海布勒小心谨慎的评估后,再演奏出来的;优美的外表背后是小心谨慎。很显然,海布勒非常信任听众,知道他们会发现音乐里人性的力量与人性的弱点。难怪,英格丽·海布勒弹奏的莫扎特,永远被认为是最权威的。

抓轨日志:(EAC-以CD1为例,全部可见于网盘)

Exact Audio Copy V1.0 beta 3 from 29. August 2011

EAC extraction logfile from 27. July 2015, 11:08

未知艺术家 / 未知标题

Used drive: MATSHITADVD+-RW UJ8E2   Adapter: 0ID: 0

Read mode               : Secure
Utilize accurate stream : Yes
Defeat audio cache      : Yes
Make use of C2 pointers : No

Read offset correction                      : 103
Overread into Lead-In and Lead-Out          : No
Fill up missing offset samples with silence : Yes
Delete leading and trailing silent blocks   : No
Null samples used in CRC calculations       : Yes
Used interface                              : Native Win32 interface for Win NT & 2000
Gap handling                              : Not detected, thus appended to previous track

Used output format : Internal WAV Routines
Sample format      : 44.100 Hz; 16 Bit; Stereo


TOC of the extracted CD

   Track |   Start|Length| Start sector | End sector
    ---------------------------------------------------------
      1|0:00.32 |5:21.00 |      32    |    24106   
      2|5:21.32 |5:54.00 |   24107    |    50656   
      3| 11:15.32 |4:57.00 |   50657    |    72931   
      4| 16:12.32 |5:28.00 |   72932    |    97531   
      5| 21:40.32 |5:21.50 |   97532    |   121656   
      6| 27:02.07 |3:54.63 |    121657    |   139269   
      7| 30:56.70 |5:29.37 |    139270    |   163981   
      8| 36:26.32 |4:51.00 |    163982    |   185806   
      9| 41:17.32 |2:39.38 |    185807    |   197769   
       10| 43:56.70 |5:25.00 |    197770    |   222144   
       11| 49:21.70 |4:15.25 |    222145    |   241294   
       12| 53:37.20 |3:59.12 |    241295    |   259231   
       13| 57:36.32 |7:14.00 |    259232    |   291781   
       14| 64:50.32 |7:13.50 |    291782    |   324306   
       15| 72:04.07 |7:31.25 |    324307    |   358156   


Track1

   Filename E:\Music\Waiting List\Home\01 音轨01.wav

   Peak level 85.4 %
   Extraction speed 2.1 X
   Track quality 99.9 %
   Copy CRC 0BF9FEE3
   Accurately ripped (confidence 4)(AR v1)
   Copy OK

Track2

   Filename E:\Music\Waiting List\Home\02 音轨02.wav

   Peak level 42.1 %
   Extraction speed 3.0 X
   Track quality 100.0 %
   Copy CRC 9CE4B27F
   Accurately ripped (confidence 4)(AR v1)
   Copy OK

Track3

   Filename E:\Music\Waiting List\Home\03 音轨03.wav

   Peak level 96.1 %
   Extraction speed 3.3 X
   Track quality 100.0 %
   Copy CRC 580704F5
   Accurately ripped (confidence 4)(AR v1)
   Copy OK

Track4

   Filename E:\Music\Waiting List\Home\04 音轨04.wav

   Peak level 73.9 %
   Extraction speed 2.9 X
   Track quality 99.9 %
   Copy CRC 3DBDDFD1
   Accurately ripped (confidence 4)(AR v1)
   Copy OK

Track5

   Filename E:\Music\Waiting List\Home\05 音轨05.wav

   Peak level 92.6 %
   Extraction speed 3.1 X
   Track quality 99.9 %
   Copy CRC 5DA1EC6E
   Accurately ripped (confidence 4)(AR v1)
   Copy OK

Track6

   Filename E:\Music\Waiting List\Home\06 音轨06.wav

   Peak level 67.9 %
   Extraction speed 3.8 X
   Track quality 100.0 %
   Copy CRC 842FC557
   Accurately ripped (confidence 4)(AR v1)
   Copy OK

Track7

   Filename E:\Music\Waiting List\Home\07 音轨07.wav

   Peak level 81.7 %
   Extraction speed 4.2 X
   Track quality 100.0 %
   Copy CRC 441D5761
   Accurately ripped (confidence 4)(AR v1)
   Copy OK

Track8

   Filename E:\Music\Waiting List\Home\08 音轨08.wav

   Peak level 57.0 %
   Extraction speed 4.3 X
   Track quality 100.0 %
   Copy CRC 6328512F
   Accurately ripped (confidence 4)(AR v1)
   Copy OK

Track9

   Filename E:\Music\Waiting List\Home\09 音轨09.wav

   Peak level 88.6 %
   Extraction speed 4.1 X
   Track quality 100.0 %
   Copy CRC 3070C68C
   Accurately ripped (confidence 4)(AR v1)
   Copy OK

Track 10

   Filename E:\Music\Waiting List\Home\10 音轨10.wav

   Peak level 71.9 %
   Extraction speed 3.8 X
   Track quality 99.9 %
   Copy CRC 24E7E8CB
   Accurately ripped (confidence 4)(AR v1)
   Copy OK

Track 11

   Filename E:\Music\Waiting List\Home\11 音轨11.wav

   Peak level 55.2 %
   Extraction speed 4.6 X
   Track quality 100.0 %
   Copy CRC A75786FF
   Accurately ripped (confidence 4)(AR v1)
   Copy OK

Track 12

   Filename E:\Music\Waiting List\Home\12 音轨12.wav

   Peak level 90.2 %
   Extraction speed 4.8 X
   Track quality 100.0 %
   Copy CRC B4A9361B
   Accurately ripped (confidence 4)(AR v1)
   Copy OK

Track 13

   Filename E:\Music\Waiting List\Home\13 音轨13.wav

   Peak level 96.7 %
   Extraction speed 5.3 X
   Track quality 100.0 %
   Copy CRC 3A264E55
   Accurately ripped (confidence 4)(AR v1)
   Copy OK

Track 14

   Filename E:\Music\Waiting List\Home\14 音轨14.wav

   Peak level 67.7 %
   Extraction speed 5.5 X
   Track quality 100.0 %
   Copy CRC 437404FD
   Accurately ripped (confidence 4)(AR v1)
   Copy OK

Track 15

   Filename E:\Music\Waiting List\Home\15 音轨15.wav

   Peak level 96.5 %
   Extraction speed 5.8 X
   Track quality 100.0 %
   Copy CRC 1B0EEB2A
   Accurately ripped (confidence 4)(AR v1)
   Copy OK


All tracks accurately ripped

No errors occurred

End of status report


专辑链接:
**** Hidden Message *****


sportchen 发表于 2015-7-27 16:14

谢谢分享海布勒 莫扎特钢琴协奏曲全集 德国/三洋老版

jack-z 发表于 2015-7-27 17:36

xiaoqingwang 发表于 2015-7-27 18:26

本帖最后由 xiaoqingwang 于 2015-10-28 14:59 编辑

老版的莫扎特钢协音乐,那我和其他版本比较一下

musicdiger 发表于 2015-7-27 23:21

两个帖子网址不同,内容一样

xutao123456 发表于 2015-7-28 00:14

acrexw 发表于 2015-7-28 09:53

古典名曲经典演绎,感谢分享!

lanhao2018 发表于 2015-7-28 12:04

Mozart Complete Piano Concertos

cocofay 发表于 2015-7-28 12:54

我没有好耳朵,但要听!!

pawaluohao1 发表于 2015-7-28 19:01

海布勒的莫扎特是极好的
页: [1] 2 3 4 5 6 7 8 9 10
查看完整版本: (原抓)海布勒 莫扎特钢琴协奏曲全集 德国/三洋老版 10CD (WAV分轨+度盘)