飘扬的阳光 发表于 2015-3-7 17:28

【论坛原创】DG画廊系列-格里格《皮尔金特组曲》企鹅三星(WAV镜像+度盘)

本帖最后由 飘扬的阳光 于 2017-10-29 16:44 编辑

【专辑中文名】: 格里格皮尔金特组曲
【专辑英文名】: Grieg: Peer-Gynt-Suiten No.1 & 2; Aus Holbergs Zeit
【作曲】: Edvard Grieg格里格
【指挥】: Herbert von Karajan卡拉扬
【乐队】: Berliner Philharmoniker柏林爱乐乐团
【发行时间】: 1982年
【出 版 者】: Deutsche Grammophon
【唱片编号】: DG 419 474-2

专辑图片:






专辑介绍:
卡拉扬/柏林爱乐:格里格皮尔金特组曲
《培尔•金特》第一组曲分为四段:
(一)"晨景"——原为诗剧第四幕第五场的前奏曲。主人公远涉重洋,前往美洲去贩运黑奴,往中国贩运偶像,一时成了富商。这时,他来到摩洛哥,一天清晨,在一个山洞前面,他用独白披露自己的内心活动。但这段音乐所描绘的并非是炎热的沙漠,而更像北欧清晨静谧清新的抒情画面。乐曲具有牧歌风格,由单一的田园风味主题加以自由而精心的发展构成。
(二)"奥丝之死"——母亲奥丝在弥留之际,培尔•金特赶了回来,他为母亲追忆儿时景象,并用幻想的故事陪母亲去赴天堂的盛筵。在全剧中,这是非常动人的一场。格里格的这段配乐悲壮肃穆,可称为一首悲歌或葬礼进行曲。
(三)"安妮特拉之舞"——选自诗剧第四幕第六场。在沙漠绿洲中,一座阿拉伯酋长的帐篷里,酋长的女儿安妮特拉正用舞蹈对培尔•金特献媚。这段音乐描绘的正是这一场面,但严格地说,它远远超过了作为配乐的作用,因为它直接参与戏剧的内容,成为诗剧中密不可分的组成部分。
(四)"在妖王宫中"——原为诗剧第二幕第六场的前奏。主人公在山中与妖王之女调情,并在妖王的威胁之下同妖女结了婚。这一场点出全剧的主题,即人与妖之间的区别,是最具幻想性的第二幕的真正核心。
《培尔•金特》第二组曲也分为四段:
(一)"英格丽德的悲叹"——原为第二幕之前的幕间曲。"英格丽德的悲哀"(即"诱拐新娘"),g小调。在对此主题的乐段扩充中,表现了培尔•金特在朋友的婚礼上拐骗了新娘英格丽德,和新娘迫切哀求这样两种不同的形象以比。原为第二幕之前的幕间曲。培尔•金特在乡村的一次婚礼上,拐走了朋友的新娘英格丽德,把她带到山上,玩弄够了又将她遗弃,说他真正爱的是索尔维格。这段音乐以英格丽德为主要形象,表现出一种非常激动和无奈的情绪,堪称为一首奇妙的挪威哀歌。
(二)"阿拉伯舞曲"——原为第四幕中阿拉伯舞蹈场面的配乐。"阿拉伯舞曲",C大调,复三部曲式。原为第四幕中阿拉伯舞蹈场面的配乐。乐曲带有女声合唱,意欲描绘东方的"异国"情调。
(三)"培尔•金特归来"——原为第五幕的前奏曲。"培尔•金特归来"(即"海上风暴之夜"),f小调,单主题三部曲式。原是诗剧第五幕开头的音乐,是乐队写作的范例,描绘了惊涛骇浪的险景;在第五幕中,主人公的形象已经是一个须发斑白的老人,他站在返回挪威的轮船上衣衫褴褛,神情冷酷。最后木管奏出悲伤的旋律,表现须发斑白的年老的培尔•金特懊丧的心情。
(四)"索尔维格之歌"——原为诗剧第四幕第十场配乐。"索尔维格之歌",a小调,二部曲式。挪威北部森林中的一间茅屋,索尔维格坐在门前,等候培尔• 金特的归来,她唱着:"冬去春来,周而复始,总有一天,你会回来。"这真是花心的培尔•金特最后落魄回家时,原妻索尔维格在河边一边洗衣一边哼的"索尔维格之歌"一情景。编入组曲的这首乐曲,经作者改编为纯器乐曲,去掉了原来的歌唱声部。乐曲的旋律十分优美,荡漾着哀愁的第一主题和洋溢着希望的第二主题形成鲜明的对比,是整部组曲中的名篇,也是格里格最成功的创作之一。
作曲/演奏者/乐团简介 
格里格:英文名Edvard Grieg(1843-1907)挪威最杰出的作曲家。生于卑尔根。父亲是位知识渊博的学者,他从母亲方面继承了音乐的天赋。1867年创办了挪威音乐学校,并根据挪威诗词创作了具有独特风格的抒情歌曲,同时将收集到的大量民间歌曲加以整理和改编。他能巧妙地将主题用古典结构形式和现实的传统音调紧密地结合在一起,从而使它与真正的传统音调紧密地结合在一起。在创作中,他会毫不犹豫地突破一些清规戒律,这在组曲《在霍尔贝格时期》中表现得尤为突出。 1868年创作了《a小调钢琴协奏曲》,使他成为当时作曲家中的佼佼者。后期作品,一般都采用短小抒情形式,十分成功。
赫伯特•冯•卡拉扬:英文名Herbert von Karajan(1908年4月5日-1989年7月16日),出生于萨尔斯堡,奥地利著名指挥家、键盘乐器演奏家和导演。卡拉扬在指挥舞台上活跃70 年。他带领过欧洲众多顶尖的乐团,并且曾和柏林爱乐乐团有过长达34年的合作关系。他热衷于录音和导演,为后人留下了大量的音像资料,包括众多的管弦乐,歌剧录音和歌剧电影,涵括从巴洛克到后浪漫主义欧洲作曲家的作品。其中一些作品,如贝多芬的交响曲还被多次录制。卡拉扬在音乐界享有盛誉,甚至在中文领域被人称为"指挥帝王"。
柏林爱乐管弦乐团:成立于1882年,著名指挥家尼基什曾任该团指挥达27年之久,他在任期间为乐团打下了牢固的基础,使之成为全世界首屈一指的交响乐团之一。1954年,福特万格勒担任该团指挥,此后乐团声誉更盛。1955年后由卡拉扬接任该团终身常任指挥,由此进入卡拉扬时代,此间该团的演奏活动和唱片录音更为频繁。在萨尔兹堡音乐节上,该团曾参与歌剧公演活动。
同欧洲许多传统的乐团相比,柏林爱乐管弦乐团的历史较短,但担任该团指挥职务的大多是最伟大的指挥家,这就使他们的演奏曲目无限扩大,合奏技能精彩绝伦,并具备了优异的反应能力,无论哪个指挥家统率该团,都能发挥其实力。可以这样说,柏林爱乐管弦乐团是当今世界上名符其实的各交响乐团之冠。

选自《企鹅激光唱片指南》的评论:
在把斯堪的那维亚民族音乐和他个人的抒情气质所作的融汇中,格里格是既成功地代表了某种说法的北欧风格,也充分展示了他本人音乐上的内 秀。尽管德彪西曾对他有过辛辣的讥讽,说他甜得让人发腻。但显而易见, 一百年来,听众并未对他感到腻味。《培尔•金特组曲》至今仍是最受爱乐 者喜爱的音乐会曲目之一。   
《培尔•金特》本是易卜生写的话剧,格里格 1874 年应邀为此剧配乐。 我们今天惯常听到的《培尔•金特》,则是格里格后来从戏剧配乐中编出的 两套交响组曲。它们各是四首曲子,尤以第一套的四首,“晨曲”、“亚瑟 之死”、“安尼特拉之舞”、“在山神殿”和第二套的末曲“索尔维格之歌”, 最为动听。
格里格还为比昂森的历史剧《十字军西古尔》作过配乐,并从中选出三 首曲子编成一套组曲。第三首“效忠进行曲”神气十足,相当著名。
五乐章的《霍尔贝格时代》是作曲家为纪念那位丹麦作家诞辰两百周年 而作,最初以钢琴组曲的形式问世,而今通常用弦乐队演奏。此曲仿效 18 世纪风格,有古色古香之美。
卡拉扬的这张唱片无可争议地好,演绎抒情而精神抖擞。录音虽不是多么轰轰烈烈,但却十分清朗宜人。

专辑曲目:
1. Peer Gynt Suite No.1, Op.46 - 1. Morning mood
2. Peer Gynt Suite No.1, Op.46 - 2. The Death of Aase   
3. Peer Gynt Suite No.1, Op.46 - 3. Anitra's dance   
4. Peer Gynt Suite No.1, Op.46 - 4. In the Hall of the Mountain King
5. Peer Gynt Suite No.2, Op.55 - 1. The Abduction (Ingrid's lament)   
6. Peer Gynt Suite No.2, Op.55 - 2. Arabian dance   
7. Peer Gynt Suite No.2, Op.55 - 3. Peer Gynt's return
8. Peer Gynt Suite No.2, Op.55 - 4. Solveig's song   
9. Holberg Suite, Op.40 - 1. Präludium (Allegro vivace)   
10. Holberg Suite, Op.40 - 2. Sarabande (Andante)   
11. Holberg Suite, Op.40 - 3. Gavotte (Allegretto) - Musette (poco più mosso) - Gavotte
12. Holberg Suite, Op.40 - 4. Air (Andante religioso)   
13. Holberg Suite, Op.40 - 5. Rigaudon (Allegro con brio)   
14. Sigurd Jorsalfar, three Orchestral pieces Op.56 - 1. Prelude: In the King's Hall (Op.22 No.1)   
15. Sigurd Jorsalfar, three Orchestral pieces Op.56 - 2. Intermezzo: Borghild's Dream (Op.22 No.2)   
16. Sigurd Jorsalfar, three Orchestral pieces Op.56 - 3. Homage March (Op.22 No.4)

下载地址:
**** Hidden Message *****

Exact Audio Copy V0.99 prebeta 5 from 4. May 2009

EAC 抓取日志文件从1. 二月 2015, 17:10

Berliner Philharmoniker, Herbert von Karajan / Grieg: Peer-Gynt-Suiten No.1 & 2, Aus Holbergs Zeit

使用驱动器:PIONEER DVD-ROM DVD-231   Adapter: 1ID: 0

读取模式   : 保护
使用精确流   : 是
废除音频缓冲 : 是
使用 C2 指针 : 否

读取偏移校正                   : 6
读取 Lead-In 和 Lead-Out       : 否
用静音填充抓取中丢失偏移的采样 : 是
去除首尾静音块               : 否
在 CRC 计算中使用了空样本      : 否
已用接口                     : Win NT 及 2000 本地 Win32 接口

所用输出格式 : 内部 WAV 函数
样本格式   : 44.100 Hz;16 Bit;立体声


被抓轨 CD 的 TOC

   音轨 |   开始   |   长度   | 起始扇区 | 结尾扇区
    --------------------------------------------------
       1|0:00.33 |4:02.37 |      33|   18219
       2|4:02.70 |4:48.38 |   18220|   39857
       3|8:51.33 |3:46.50 |   39858|   56857
       4| 12:38.08 |2:11.50 |   56858|   66732
       5| 14:49.58 |4:56.25 |   66733|   88957
       6| 19:46.08 |4:41.00 |   88958|110032
       7| 24:27.08 |2:44.00 |110033|122332
       8| 27:11.08 |6:23.50 |122333|151107
       9| 33:34.58 |2:56.50 |151108|164357
      10| 36:31.33 |4:16.12 |164358|183569
      11| 40:47.45 |3:49.38 |183570|200782
      12| 44:37.08 |5:51.25 |200783|227132
      13| 50:28.33 |4:02.25 |227133|245307
      14| 54:30.58 |3:46.12 |245308|262269
      15| 58:16.70 |3:15.63 |262270|276957
      16| 61:32.58 |9:40.50 |276958|320507


范围状态及错误

已选择范围

   文件名 E:\Exact Audio Copy\Berliner Philharmoniker, Herbert von Karajan - GriegPeer-Gynt-Suiten No.1 & 2, Aus Holbergs Zeit.wav

   峰值电平 93.6 %
   范围质量 100.0 %
   复制 CRC 49291658
   复制成功

没有错误发生


AccurateRip 概要

音轨1已正确抓取 (确认 10)
音轨2已正确抓取 (确认 10)
音轨3已正确抓取 (确认 10)
音轨4已正确抓取 (确认 10)
音轨5已正确抓取 (确认 10)
音轨6已正确抓取 (确认 10)
音轨7已正确抓取 (确认 10)
音轨8已正确抓取 (确认 10)
音轨9已正确抓取 (确认 10)
音轨 10已正确抓取 (确认 10)
音轨 11已正确抓取 (确认 10)
音轨 12已正确抓取 (确认 10)
音轨 13已正确抓取 (确认 10)
音轨 14已正确抓取 (确认 10)
音轨 15已正确抓取 (确认 10)
音轨 16已正确抓取 (确认 10)

所有音轨已被精确抓取

状态报告结尾

本CD资料仅供试听和测试之用,请于下载后24小时内删除,请勿用于任何商业用途或公开传播。若您喜欢此CD的内容,建议您选择购买正版授权的光盘,支持正版。

12zeng 发表于 2015-3-7 18:48

感謝大大的分享
百聽不厭, 讚!!

fbblgg 发表于 2015-3-7 19:00

以前下过,丢了,补下

dianma7 发表于 2015-3-7 19:48

企鹅名盘,收下了,谢谢分享!!

xiaoqingwang 发表于 2015-3-7 20:18

本帖最后由 xiaoqingwang 于 2015-10-28 17:49 编辑

缺此碟,补上!

ludwig1990 发表于 2015-3-7 23:32

经典名版,谢谢无私分享~

sinodubai 发表于 2015-3-7 23:38

卡拉扬一生数次录过的曲目。

klutz 发表于 2015-3-8 00:06

制作完美,下!

dsh5611 发表于 2015-3-8 07:17

谢谢,这张评价很好,喜欢。

Isaac 发表于 2015-3-8 09:46

谢谢分享皮尔金特组曲当中的优美音乐!
页: [1] 2 3 4 5 6 7 8 9 10
查看完整版本: 【论坛原创】DG画廊系列-格里格《皮尔金特组曲》企鹅三星(WAV镜像+度盘)