zhangtom 发表于 2015-2-10 08:52

原抓-The Complete EMI Edition-Celibidache-第二十六弹-1CD-WAV-百度云

*由衷感谢年华/雨点版主的无私分享,把包子邮寄给我让我享受拆封精品、抓取的乐趣,感谢老大的号召让大家凝聚在PT80。

The Complete EMI Edition-Celibidache, Münchner Philharmoniker-之二十六
切利比达克 CELIBIDACHE EMI 录音全集,绝版多年的EMI套装。一共33cd,曲目包含了贝多芬、布鲁克纳、勃拉姆斯。

Sergiu Celibidache - Wagner

简介:
发行公司:EMI
指 挥:Celibidache
乐团:慕尼黑爱乐乐团(münchner philharmoniker)
CD编号:7 24355 65242 3
CD数量:1 CD
年代:1997

照片:














抓取记录:
Exact Audio Copy V1.0 beta 3 from 29. August 2011

EAC 抓取日志文件从7. 二月 2015, 23:27

Wagner / Orchestermusik (Celibidache, Münchner Philharmoniker)

使用驱动器:HL-DT-STDVDRAM GU40N   Adapter: 0ID: 1

读取模式      : 可靠Secure
使用精确流   : 是
清空音频缓存    : 是
使用 C2 指示器 : 否

读取偏移校正:               : 103
读取 Lead-In 和 Lead-Out : 否
用静音填充抓取中丢失偏移的采样       : 是
去除首尾静音块               : 否
在CRC 计算中使用了空样本       : 是
已用接口                  : Win NT 及 2000 本地 Win32 接口

所用输出模式: : 内部 WAV 函数
样本格式    : 44.100 Hz; 16 Bit; 立体声


已抓取 CD 的 TOC

   音轨 |    起始    |    长度    |起始扇区|结束扇区
    --------------------------------------------
      1 |0:00.00 |1:05.55 |      0 |   4929
      2 |1:05.55 | 12:28.37 |   4930 |61066
      3 | 13:34.17 |0:24.58 |61067 |62924
      4 | 13:59.00 | 23:47.20 |62925 | 169969
      5 | 37:46.20 |0:25.55 | 169970 | 171899
      6 | 38:12.00 |9:25.27 | 171900 | 214301
      7 | 47:37.27 |0:27.13 | 214302 | 216339
      8 | 48:04.40 | 16:56.72 | 216340 | 292611
      9 | 65:01.37 |1:04.10 | 292612 | 297421


范围状态及错误

已选择范围

   文件名 E:\Music\Sergiu Celibidache - Wagner.wav

   峰值电平 98.0 %
   抓取速度 2.1 X
   范围质量 100.0 %
   复制 CRC ACC4465D
   复制成功

没有错误发生


AccurateRip 摘要

音轨1精确地校准抓取35)(AR v2)
音轨2精确地校准抓取37)(AR v2)
音轨3精确地校准抓取36)(AR v2)
音轨4精确地校准抓取38)(AR v2)
音轨5精确地校准抓取36)(AR v2)
音轨6精确地校准抓取37)(AR v2)
音轨7精确地校准抓取35)(AR v2)
音轨8精确地校准抓取36)(AR v2)
音轨9精确地校准抓取36)(AR v2)

所有音轨精确校准抓取

状态报告结尾

---- CUETools DB Plugin V2.1.3

found, Submit result: ImPmdINbFwWkpBAmgcYI2bSdRY0- has been confirmed
(68/70) Accurately ripped
(01/70) No match
(01/70) No match


下载地址:
**** Hidden Message *****

警告:
本资源仅供试听交流分享,请于下载后24小时内删除。
唱片版权归发行公司所有。请勿用于商业用途,一切商业形式的下载与发布者无关。
如果你喜欢这张唱片,请购买正版。

fbblgg 发表于 2015-2-10 08:56

瓦格纳的管弦乐曲集

酥糖 发表于 2015-2-10 09:02

楼上always win

郝穴老汉 发表于 2015-2-10 09:43

瓦格纳,德国民族音乐之父!中国的民族音乐之父在哪里?

sherry123 发表于 2015-2-10 10:00

瓦格纳的管弦乐曲集,不错,谢谢!!!

zenio 发表于 2015-2-10 10:12

听听WAGNER

ctspp 发表于 2015-2-10 10:37

切利比达克真心不错,WAV抓轨,原汁原味,谢谢分享

topyo 发表于 2015-2-10 11:20


为什么不做编号的呢?

nenglipku 发表于 2015-2-10 11:54

感谢楼主!欧元大辛苦了

jonymyson 发表于 2015-2-10 11:58

華格納
感謝
页: [1] 2 3 4 5 6 7 8 9 10
查看完整版本: 原抓-The Complete EMI Edition-Celibidache-第二十六弹-1CD-WAV-百度云