zhangtom 发表于 2015-2-10 08:35

原抓-The Complete EMI Edition-Celibidache-第二十五弹-1CD-WAV-百度云

*由衷感谢年华/雨点版主的无私分享,把包子邮寄给我让我享受拆封精品、抓取的乐趣,感谢老大的号召让大家凝聚在PT80。

The Complete EMI Edition-Celibidache, Münchner Philharmoniker-之二十五
切利比达克 CELIBIDACHE EMI 录音全集,绝版多年的EMI套装。一共33cd,曲目包含了贝多芬、布鲁克纳、勃拉姆斯。

Sergiu Celibidache - Tschaikowsky - Symphonie Nr.6

简介:
发行公司:EMI
指 挥:Celibidache
乐团:慕尼黑爱乐乐团(münchner philharmoniker)
CD编号:7 24355 65232 4
CD数量:1 CD
年代:1997

照片:














抓取记录:
Exact Audio Copy V1.0 beta 3 from 29. August 2011

EAC 抓取日志文件从5. 二月 2015, 23:50

Sergiu Celibidache - Muenchner Philharmoniker / Tchaikovsky - Symphony No.6

使用驱动器:HL-DT-STDVDRAM GU40N   Adapter: 0ID: 1

读取模式      : 可靠Secure
使用精确流   : 是
清空音频缓存    : 是
使用 C2 指示器 : 否

读取偏移校正:               : 103
读取 Lead-In 和 Lead-Out : 否
用静音填充抓取中丢失偏移的采样       : 是
去除首尾静音块               : 否
在CRC 计算中使用了空样本       : 是
已用接口                  : Win NT 及 2000 本地 Win32 接口

所用输出模式: : 内部 WAV 函数
样本格式    : 44.100 Hz; 16 Bit; 立体声


已抓取 CD 的 TOC

   音轨 |    起始    |    长度    |起始扇区|结束扇区
    --------------------------------------------
      1 |0:00.00 |1:11.50 |      0 |   5374
      2 |1:11.50 | 25:44.57 |   5375 | 121231
      3 | 26:56.32 |9:11.58 | 121232 | 162614
      4 | 36:08.15 | 11:07.35 | 162615 | 212674
      5 | 47:15.50 | 13:10.32 | 212675 | 271956
      6 | 60:26.07 |1:10.05 | 271957 | 277211


范围状态及错误

已选择范围

   文件名 E:\Music\Sergiu Celibidache - Tchaikovsky.wav

   峰值电平 98.0 %
   抓取速度 2.0 X
   范围质量 99.9 %
   复制 CRC 1779B727
   复制成功

没有错误发生


AccurateRip 摘要

音轨1精确地校准抓取38)(AR v2)
音轨2精确地校准抓取38)(AR v2)
音轨3精确地校准抓取40)(AR v2)
音轨4精确地校准抓取39)(AR v2)
音轨5精确地校准抓取33)(AR v2)
音轨6精确地校准抓取33)(AR v2)

所有音轨精确校准抓取

状态报告结尾

---- CUETools DB Plugin V2.1.3

found, Submit result: ds3nS3mwWJCJrFT0eluuuDw3HNQ- has been confirmed
(48/49) Accurately ripped
(01/49) No match


下载地址:
**** Hidden Message *****

警告:
本资源仅供试听交流分享,请于下载后24小时内删除。
唱片版权归发行公司所有。请勿用于商业用途,一切商业形式的下载与发布者无关。
如果你喜欢这张唱片,请购买正版。

fbblgg 发表于 2015-2-10 08:36

柴六来了,楼主敬业啊,大清早起来续这个大包子

酥糖 发表于 2015-2-10 08:37

楼上真是比我还快哈。

郝穴老汉 发表于 2015-2-10 09:46

大爱柴六,听听切大师再次如何演绎,谢过楼主!

sherry123 发表于 2015-2-10 09:57

先谢再下,辛苦了。

zenio 发表于 2015-2-10 10:14

他的老柴脱离了以往单纯的"美",恰好能他的音乐理念:"美"只是音乐的诱饵,音乐真正关乎的是"真"。

ctspp 发表于 2015-2-10 10:34

切利比达克真心不错,WAV抓轨,原汁原味,谢谢分享

topyo 发表于 2015-2-10 11:20

为什么不做编号的呢?

nenglipku 发表于 2015-2-10 11:53

感谢楼主!欧元老大辛苦

jonymyson 发表于 2015-2-10 11:58

感謝分享
页: [1] 2 3 4 5 6 7 8 9 10
查看完整版本: 原抓-The Complete EMI Edition-Celibidache-第二十五弹-1CD-WAV-百度云