zhangtom 发表于 2015-2-9 17:09

原抓-The Complete EMI Edition-Celibidache-第十九弹-1CD-WAV-百度云

*由衷感谢年华/雨点版主的无私分享,把包子邮寄给我让我享受拆封精品、抓取的乐趣,感谢老大的号召让大家凝聚在PT80。

The Complete EMI Edition-Celibidache, Münchner Philharmoniker-之十九
切利比达克 CELIBIDACHE EMI 录音全集,绝版多年的EMI套装。一共33cd,曲目包含了贝多芬、布鲁克纳、勃拉姆斯。

Sergiu Celibidache - Haydn

简介:
发行公司:EMI
指 挥:Celibidache
乐团:慕尼黑爱乐乐团(münchner philharmoniker)
CD编号:7 24355 65182 2
CD数量:1 CD
年代:1997

照片:












抓取记录:
Exact Audio Copy V1.0 beta 3 from 29. August 2011

EAC 抓取日志文件从2. 二月 2015, 23:41

Haydn, Franz Joseph / Sergiu Celibidache - Symphonies (CD1)

使用驱动器:HL-DT-STDVDRAM GU40N   Adapter: 0ID: 1

读取模式      : 可靠Secure
使用精确流   : 是
清空音频缓存    : 是
使用 C2 指示器 : 否

读取偏移校正:               : 103
读取 Lead-In 和 Lead-Out : 否
用静音填充抓取中丢失偏移的采样       : 是
去除首尾静音块               : 否
在CRC 计算中使用了空样本       : 是
已用接口                  : Win NT 及 2000 本地 Win32 接口

所用输出模式: : 内部 WAV 函数
样本格式    : 44.100 Hz; 16 Bit; 立体声


已抓取 CD 的 TOC

   音轨 |    起始    |    长度    |起始扇区|结束扇区
    --------------------------------------------
      1 |0:00.00 |0:56.02 |      0 |   4201
      2 |0:56.02 | 11:04.15 |   4202 |54016
      3 | 12:00.17 | 12:27.65 |54017 | 110106
      4 | 24:28.07 |6:05.15 | 110107 | 137496
      5 | 30:33.22 |5:58.43 | 137497 | 164389
      6 | 36:31.65 |1:08.07 | 164390 | 169496
      7 | 37:39.72 |1:01.15 | 169497 | 174086
      8 | 38:41.12 |8:42.45 | 174087 | 213281
      9 | 47:23.57 |9:50.23 | 213282 | 257554
   10 | 57:14.05 |6:55.70 | 257555 | 288749
   11 | 64:10.00 |5:20.50 | 288750 | 312799
   12 | 69:30.50 |1:01.22 | 312800 | 317396


范围状态及错误

已选择范围

   文件名 E:\Music\Sergiu Celibidache - Haydn.wav

   峰值电平 98.0 %
   抓取速度 2.1 X
   范围质量 100.0 %
   复制 CRC 4C0D7702
   复制成功

没有错误发生


AccurateRip 摘要

音轨1精确地校准抓取24)(AR v2)
音轨2精确地校准抓取24)(AR v2)
音轨3精确地校准抓取24)(AR v2)
音轨4精确地校准抓取24)(AR v2)
音轨5精确地校准抓取24)(AR v2)
音轨6精确地校准抓取25)(AR v2)
音轨7精确地校准抓取25)(AR v2)
音轨8精确地校准抓取24)(AR v2)
音轨9精确地校准抓取24)(AR v2)
音轨 10精确地校准抓取24)(AR v2)
音轨 11精确地校准抓取24)(AR v2)
音轨 12精确地校准抓取25)(AR v2)

所有音轨精确校准抓取

状态报告结尾

---- CUETools DB Plugin V2.1.3

found, Submit result: ceYF2NDY1eswVgBr045CoxewpjI- has been confirmed
(42/42) Accurately ripped


下载地址:
**** Hidden Message *****

警告:
本资源仅供试听交流分享,请于下载后24小时内删除。
唱片版权归发行公司所有。请勿用于商业用途,一切商业形式的下载与发布者无关。
如果你喜欢这张唱片,请购买正版。

zenio 发表于 2015-2-9 17:15

沙发吗?今天效率很高

6936695 发表于 2015-2-9 17:20

第一时间顶起,雨点这个大包我们已经关注很久啦,感谢博士辛勤工作,让世界充满爱:lol

酥糖 发表于 2015-2-9 17:22

人间有真情,博士有大爱。

jonymyson 发表于 2015-2-9 19:17

感謝分享

fbblgg 发表于 2015-2-9 22:07

能收到老切的EMI全集,我等坛友的福分

sherry123 发表于 2015-2-9 22:23

谢谢,再接再厉,加油!!!

郝穴老汉 发表于 2015-2-10 09:30

原滋原味的好碟,谢过!

ctspp 发表于 2015-2-10 10:23

切利比达克真心不错,WAV抓轨,原汁原味,谢谢分享

topyo 发表于 2015-2-10 10:55

谢谢老大啦,不错
页: [1] 2 3 4 5 6 7 8 9 10
查看完整版本: 原抓-The Complete EMI Edition-Celibidache-第十九弹-1CD-WAV-百度云