zhangtom 发表于 2015-2-9 15:43

原抓-The Complete EMI Edition-Celibidache-第十八弹-1CD-WAV-百度云

本帖最后由 zhangtom 于 2015-2-9 15:43 编辑

*由衷感谢年华/雨点版主的无私分享,把包子邮寄给我让我享受拆封精品、抓取的乐趣,感谢老大的号召让大家凝聚在PT80。

The Complete EMI Edition-Celibidache, Münchner Philharmoniker-之十八
切利比达克 CELIBIDACHE EMI 录音全集,绝版多年的EMI套装。一共33cd,曲目包含了贝多芬、布鲁克纳、勃拉姆斯。

Sergiu Celibidache - Debussy

简介:
发行公司:EMI
指 挥:Celibidache
乐团:慕尼黑爱乐乐团(münchner philharmoniker)
CD编号:7 24355 65202 7
CD数量:1 CD
年代:1997

照片:
















抓取记录:
Exact Audio Copy V1.0 beta 3 from 29. August 2011

EAC 抓取日志文件从2. 二月 2015, 23:04

Sergiu Celibidache & Munchner Philharmoniker / Debussy : La Mer, Images pour Orchestre No.2

使用驱动器:HL-DT-STDVDRAM GU40N   Adapter: 0ID: 1

读取模式      : 可靠Secure
使用精确流   : 是
清空音频缓存    : 是
使用 C2 指示器 : 否

读取偏移校正:               : 103
读取 Lead-In 和 Lead-Out : 否
用静音填充抓取中丢失偏移的采样       : 是
去除首尾静音块               : 否
在CRC 计算中使用了空样本       : 是
已用接口                  : Win NT 及 2000 本地 Win32 接口

所用输出模式: : 内部 WAV 函数
样本格式    : 44.100 Hz; 16 Bit; 立体声


已抓取 CD 的 TOC

   音轨 |    起始    |    长度    |起始扇区|结束扇区
    --------------------------------------------
      1 |0:00.00 |1:07.67 |      0 |   5091
      2 |1:07.67 | 13:09.60 |   5092 |64326
      3 | 14:17.52 |8:42.38 |64327 | 103514
      4 | 23:00.15 | 11:17.52 | 103515 | 154341
      5 | 34:17.67 |1:02.08 | 154342 | 158999
      6 | 35:20.00 |0:54.02 | 159000 | 163051
      7 | 36:14.02 |9:06.43 | 163052 | 204044
      8 | 45:20.45 | 13:27.32 | 204045 | 264601
      9 | 58:48.02 |5:11.65 | 264602 | 287991
   10 | 63:59.67 |1:02.05 | 287992 | 292646


范围状态及错误

已选择范围

   文件名 E:\Music\Sergiu Celibidache - Debussy.wav

   峰值电平 98.0 %
   抓取速度 2.1 X
   范围质量 100.0 %
   复制 CRC 5B4B78DE
   复制成功

没有错误发生


AccurateRip 摘要

音轨1精确地校准抓取30)(AR v2)
音轨2精确地校准抓取30)(AR v2)
音轨3精确地校准抓取30)(AR v2)
音轨4精确地校准抓取29)(AR v2)
音轨5精确地校准抓取31)(AR v2)
音轨6精确地校准抓取31)(AR v2)
音轨7精确地校准抓取30)(AR v2)
音轨8精确地校准抓取30)(AR v2)
音轨9精确地校准抓取29)(AR v2)
音轨 10精确地校准抓取30)(AR v2)

所有音轨精确校准抓取

状态报告结尾

---- CUETools DB Plugin V2.1.3

found, Submit result: TZoV9GGg8kwwkJFJWxacBw8D1.k- has been confirmed
(42/43) Accurately ripped
(01/43) No match

下载地址:
**** Hidden Message *****

警告:
本资源仅供试听交流分享,请于下载后24小时内删除。
唱片版权归发行公司所有。请勿用于商业用途,一切商业形式的下载与发布者无关。
如果你喜欢这张唱片,请购买正版。

sherry123 发表于 2015-2-9 15:55

谢谢了,继续下。

zenio 发表于 2015-2-9 16:04

总共33CD,快发完了吧??

jonymyson 发表于 2015-2-9 19:14

Celibidache的德布西倒是沒聽過

fbblgg 发表于 2015-2-9 22:06

硬盘上的无损全删尽了,换收WAV及以上音质的古典

郝穴老汉 发表于 2015-2-10 09:30

原滋原味的好碟,谢过!

ctspp 发表于 2015-2-10 10:22

切利比达克真心不错,WAV抓轨,原汁原味,谢谢分享

topyo 发表于 2015-2-10 10:31

一定要谢谢老大

酥糖 发表于 2015-2-10 10:42

极少这么认真收集一套碟 谢谢欧帅

爱乐的羊 发表于 2015-2-10 11:39

德彪西了,继续收藏。谢谢楼主!
页: [1] 2 3 4 5 6 7 8 9 10
查看完整版本: 原抓-The Complete EMI Edition-Celibidache-第十八弹-1CD-WAV-百度云