zhangtom 发表于 2015-2-8 12:32

原抓-The Complete EMI Edition-Celibidache-第十七弹-1CD-WAV-百度云

*由衷感谢年华/雨点版主的无私分享,把包子邮寄给我让我享受拆封精品、抓取的乐趣,感谢老大的号召让大家凝聚在PT80。

The Complete EMI Edition-Celibidache, Münchner Philharmoniker-之十七
切利比达克 CELIBIDACHE EMI 录音全集,绝版多年的EMI套装。一共33cd,曲目包含了贝多芬、布鲁克纳、勃拉姆斯。

Sergiu Celibidache - Bruckner - Messe in F minor

简介:
发行公司:EMI
指 挥:Celibidache
乐团:慕尼黑爱乐乐团(münchner philharmoniker)
CD编号:7 24355 67022 9
CD数量:1 CD
年代:1998

照片:














抓取记录:
Exact Audio Copy V1.0 beta 3 from 29. August 2011

EAC 抓取日志文件从2. 二月 2015, 22:24

Bruckner / Messe Nr. 3 (Celibidache, Münchner Philharmoniker, Philharmon . Chor München)

使用驱动器:HL-DT-STDVDRAM GU40N   Adapter: 0ID: 1

读取模式      : 可靠Secure
使用精确流   : 是
清空音频缓存    : 是
使用 C2 指示器 : 否

读取偏移校正:               : 103
读取 Lead-In 和 Lead-Out : 否
用静音填充抓取中丢失偏移的采样       : 是
去除首尾静音块               : 否
在CRC 计算中使用了空样本       : 是
已用接口                  : Win NT 及 2000 本地 Win32 接口

所用输出模式: : 内部 WAV 函数
样本格式    : 44.100 Hz; 16 Bit; 立体声


已抓取 CD 的 TOC

   音轨 |    起始    |    长度    |起始扇区|结束扇区
    --------------------------------------------
      1 |0:00.00 | 12:38.30 |      0 |56879
      2 | 12:38.30 | 15:11.25 |56880 | 125229
      3 | 27:49.55 | 24:20.17 | 125230 | 234746
      4 | 52:09.72 |2:45.60 | 234747 | 247181
      5 | 54:55.57 | 11:34.65 | 247182 | 299296
      6 | 66:30.47 | 10:45.28 | 299297 | 347699


范围状态及错误

已选择范围

   文件名 E:\Music\Sergiu Celibidache - Bruckner - Messe in F minor.wav

   峰值电平 98.0 %
   抓取速度 2.1 X
   范围质量 100.0 %
   复制 CRC EB0DDC51
   复制成功

没有错误发生


AccurateRip 摘要

音轨1精确地校准抓取36)(AR v2)
音轨2精确地校准抓取37)(AR v2)
音轨3精确地校准抓取37)(AR v2)
音轨4精确地校准抓取37)(AR v2)
音轨5精确地校准抓取39)(AR v2)
音轨6精确地校准抓取36)(AR v2)

所有音轨精确校准抓取

状态报告结尾

---- CUETools DB Plugin V2.1.3

found, Submit result: vJktobjgAc8_tSSES_MWMzD0YGc- has been confirmed
(76/84) Accurately ripped
(01/84) No match
(01/84) No match
(02/84) No match
(01/84) No match
(01/84) No match
(01/84) No match
(01/84) No match

下载地址:
**** Hidden Message *****

警告:
本资源仅供试听交流分享,请于下载后24小时内删除。
唱片版权归发行公司所有。请勿用于商业用途,一切商业形式的下载与发布者无关。
如果你喜欢这张唱片,请购买正版。

topyo 发表于 2015-2-8 12:38

其实回复了那么多,已经词穷了谢谢

zenio 发表于 2015-2-8 12:54

我感觉要听切利的东西最好也去饮饮茶

nenglipku 发表于 2015-2-8 14:57

感谢楼主!布鲁克纳收全了

pentiumhe 发表于 2015-2-8 17:20

原来布鲁克纳还有一张:L,继续收

buwaster 发表于 2015-2-8 21:10

布魯克納彌撒

78966987 发表于 2015-2-9 09:52

这套含金量高。谢谢分享

sherry123 发表于 2015-2-9 14:48

再次谢谢老大的好东东,:handshake

ctspp 发表于 2015-2-9 15:59

切利比达克真心不错,WAV抓轨,原汁原味,谢谢分享

fbblgg 发表于 2015-2-9 22:03

器材像样点,WAV音质足够享受了
页: [1] 2 3 4 5 6 7 8 9 10
查看完整版本: 原抓-The Complete EMI Edition-Celibidache-第十七弹-1CD-WAV-百度云