zhangtom 发表于 2015-2-2 20:58

原抓-The Complete EMI Edition-Celibidache-第九蛋-2CD-WAV-百度云

*由衷感谢年华/雨点版主的无私分享,把包子邮寄给我让我享受拆封精品、抓取的乐趣,感谢老大的号召让大家凝聚在PT80。

The Complete EMI Edition-Celibidache, Münchner Philharmoniker-之九
切利比达克 CELIBIDACHE EMI 录音全集,绝版多年的EMI套装。一共33cd,曲目包含了贝多芬、布鲁克纳、勃拉姆斯。

Sergiu Celibidache - Brahms Symphonie 2,3&4-2CD

简介:
发行公司:EMI
指 挥:Celibidache
乐团:慕尼黑爱乐乐团(münchner philharmoniker)
CD编号:7 24355 68462 2
年代:1999

照片:
















抓取记录:
Exact Audio Copy V1.0 beta 3 from 29. August 2011

EAC 抓取日志文件从30. 一月 2015, 22:59

Münchner Philharmoniker / Celibidache Brahms 2,3 & 4(DISC 1)

使用驱动器:HL-DT-STDVDRAM GU40N   Adapter: 0ID: 1

读取模式      : 可靠Secure
使用精确流   : 是
清空音频缓存    : 是
使用 C2 指示器 : 否

读取偏移校正:               : 103
读取 Lead-In 和 Lead-Out : 否
用静音填充抓取中丢失偏移的采样       : 是
去除首尾静音块               : 否
在CRC 计算中使用了空样本       : 是
已用接口                  : Win NT 及 2000 本地 Win32 接口

所用输出模式: : 内部 WAV 函数
样本格式    : 44.100 Hz; 16 Bit; 立体声


已抓取 CD 的 TOC

   音轨 |    起始    |    长度    |起始扇区|结束扇区
    --------------------------------------------
      1 |0:00.00 |0:36.70 |      0 |   2769
      2 |0:36.70 | 17:15.67 |   2770 |80461
      3 | 17:52.62 | 13:04.25 |80462 | 139286
      4 | 30:57.12 |6:02.15 | 139287 | 166451
      5 | 36:59.27 | 11:01.40 | 166452 | 216066
      6 | 48:00.67 |0:56.55 | 216067 | 220321
      7 | 48:57.47 |9:58.15 | 220322 | 265186
      8 | 58:55.62 | 10:40.30 | 265187 | 313216


范围状态及错误

已选择范围

   文件名 E:\Music\Münchner Philharmoniker - Celibidache Brahms 2,3 & 4(DISC 1).wav

   峰值电平 98.0 %
   抓取速度 2.1 X
   范围质量 99.9 %
   复制 CRC 07EB0F12
   复制成功

没有错误发生


AccurateRip 摘要

音轨1精确地校准抓取23)(AR v2)
音轨2精确地校准抓取22)(AR v2)
音轨3精确地校准抓取23)(AR v2)
音轨4精确地校准抓取23)(AR v2)
音轨5精确地校准抓取23)(AR v2)
音轨6精确地校准抓取23)(AR v2)
音轨7精确地校准抓取22)(AR v2)
音轨8精确地校准抓取20)(AR v2)

所有音轨精确校准抓取

状态报告结尾

---- CUETools DB Plugin V2.1.3

found, Submit result: BrIC4LCAtVbana.rN3jnVnZM.9Y- has been confirmed
(42/43) Accurately ripped
(01/43) No match


下载地址:
**** Hidden Message *****

警告:
本资源仅供试听交流分享,请于下载后24小时内删除。
唱片版权归发行公司所有。请勿用于商业用途,一切商业形式的下载与发布者无关。
如果你喜欢这张唱片,请购买正版。

topyo 发表于 2015-2-2 21:34

难道我是沙发,第一次抢到沙发谢谢老大的分享

nenglipku 发表于 2015-2-2 21:41

感谢楼主!哈哈,到我最喜欢的勃拉姆斯了

nenglipku 发表于 2015-2-2 21:41

感谢楼主!哈哈,到我最喜欢的勃拉姆斯了

Nice.Music 发表于 2015-2-2 23:09

慕尼黑爱乐乐团被视为德奥作品最正统的诠释者之一,德国历史最悠久的交响乐团之一,作品绝对经典,感谢版大大分享!!!!!!

znjdm 发表于 2015-2-3 11:15

谢谢楼主,好多都是我的最爱。

郝穴老汉 发表于 2015-2-3 13:16

继续追逐好碟,谢谢!

danfor456 发表于 2015-2-3 19:29

谢谢楼主,辛苦

cd72mkii 发表于 2015-2-4 08:09

感谢分享勃拉姆斯交响。

larrywu228 发表于 2015-2-5 11:27

謝謝分享, 收下了
页: [1] 2 3 4 5 6 7 8 9 10
查看完整版本: 原抓-The Complete EMI Edition-Celibidache-第九蛋-2CD-WAV-百度云