zhangtom 发表于 2015-1-28 08:46

原抓-The Complete EMI Edition-Celibidache-第二弹-1CD-WAV-百度云

本帖最后由 zhangtom 于 2015-1-28 08:46 编辑

*由衷感谢年华/雨点版主的无私分享,把包子邮寄给我让我享受拆封精品、抓取的乐趣,感谢老大的号召让大家凝聚在PT80。

The Complete EMI Edition-Celibidache, Münchner Philharmoniker-之二
切利比达克 CELIBIDACHE EMI 录音全集,绝版多年的EMI套装。一共33cd,曲目包含了贝多芬、布鲁克纳、勃拉姆斯。

Beethoven, Ludwig van - Sergiu Celibidache - Symphonies (CD4)

简介:
发行公司:EMI
指 挥:Celibidache
乐团:慕尼黑爱乐乐团(münchner philharmoniker)
CD编号:24355 68392 2
年代:1999

照片:














抓取记录:
Exact Audio Copy V1.0 beta 3 from 29. August 2011

EAC 抓取日志文件从27. 一月 2015, 0:42

Beethoven, Ludwig van / Sergiu Celibidache - Symphonies (CD4)

使用驱动器:HL-DT-STDVDRAM GU40N   Adapter: 0ID: 1

读取模式      : 可靠Secure
使用精确流   : 是
清空音频缓存    : 是
使用 C2 指示器 : 否

读取偏移校正:               : 103
读取 Lead-In 和 Lead-Out : 否
用静音填充抓取中丢失偏移的采样       : 是
去除首尾静音块               : 否
在CRC 计算中使用了空样本       : 是
已用接口                  : Win NT 及 2000 本地 Win32 接口

所用输出模式: : 内部 WAV 函数
样本格式    : 44.100 Hz; 16 Bit; 立体声


已抓取 CD 的 TOC

   音轨 |    起始    |    长度    |起始扇区|结束扇区
    --------------------------------------------
      1 |0:00.00 | 16:35.25 |      0 |74649
      2 | 16:35.25 | 19:13.42 |74650 | 161166
      3 | 35:48.67 |6:52.45 | 161167 | 192111
      4 | 42:41.37 | 14:27.40 | 192112 | 257176
      5 | 57:09.02 |0:40.70 | 257177 | 260246


范围状态及错误

已选择范围

   文件名 E:\Music\Beethoven, Ludwig van - Sergiu Celibidache - Symphonies (CD4).wav

   峰值电平 87.7 %
   抓取速度 2.0 X
   范围质量 100.0 %
   复制 CRC 2D1AAA5E
   复制成功

没有错误发生


AccurateRip 摘要

音轨1精确地校准抓取18)(AR v2)
音轨2精确地校准抓取20)(AR v2)
音轨3精确地校准抓取20)(AR v2)
音轨4精确地校准抓取20)(AR v2)
音轨5精确地校准抓取20)(AR v2)

所有音轨精确校准抓取

状态报告结尾

---- CUETools DB Plugin V2.1.3

found, Submit result: R8t336zIQWREc_IH0ypYNen5tXM- has been confirmed
(69/69) Accurately ripped

下载地址:
**** Hidden Message *****

警告:
本资源仅供试听交流分享,请于下载后24小时内删除。
唱片版权归发行公司所有。请勿用于商业用途,一切商业形式的下载与发布者无关。
如果你喜欢这张唱片,请购买正版。

酥糖 发表于 2015-1-28 09:00

:lol谢谢欧元老大   mark起来 跟第一发一起收

zenio 发表于 2015-1-28 10:11

听了第一弹,现场录音效果一般

jonymyson 发表于 2015-1-28 11:41

對他的貝三沒啥印象,聽聽看這版本

nenglipku 发表于 2015-1-28 12:48

感谢楼主,期待后续,尤其是舒曼的交响曲

Junjun008 发表于 2015-1-28 16:20

非常珍贵 ,谢谢,很耐听!

askyou999 发表于 2015-1-28 20:53

谢谢搂主!欣赏一下!

merv 发表于 2015-1-29 11:05

第三个,继续支持中!

Nice.Music 发表于 2015-1-30 02:48

慕尼黑爱乐乐团应该为德奥作品最正统的诠释者之一了,这个资源实在是珍贵,感谢分享。{:4_113:}

无柳居士 发表于 2015-1-30 19:00

可别是115的啊!
页: [1] 2 3 4 5 6 7 8 9 10
查看完整版本: 原抓-The Complete EMI Edition-Celibidache-第二弹-1CD-WAV-百度云