zhangtom 发表于 2014-4-30 09:25

DG-卡拉扬-柏林爱乐乐团-柔板-卡农-小夜曲-1CD-WAV-百度云

Berliner Philharmoniker - Herbert von Karajan - Albinoni- Adagio - Pachelbel- Canon

简介:
专辑英文名: Adagio, Canon, Serenata notturna
专辑中文名: 柔板-卡农-小夜曲
艺术家: Albinoni, Pachelbel, Mozart
作曲家: Tomaso Albinoni, Antonio Vivaldi, Johann Pachelbel, Christoph Willibald Gluck, Wolfgang Amadeus Mozart
指挥: Herbert von Karajan
演奏: Berliner Philharmoniker
小提琴: Thomas Brandis,Emil Maas
中提琴: Neithard Resa
低音提琴: Rainer Zepperitz
版本: Karajan, BPO
发行时间: 1984年
地区: 德国
语言: 德语
CD编号: DG 413 309-2

图片:












专辑介绍:
本专辑共收录了阿尔比诺尼、帕赫贝尔、莫扎特、格鲁克(1714~1787)等六位作曲家的十首巴洛克名曲作精华。大约从十六世纪末到1750年间的音乐,被人们称为巴洛克音乐。巴洛克(Baroque),原指形状不整的珍珠,最初被用来表现一种建筑艺术形式。文艺复兴时期的艺术是以希腊、罗马的形式美为第一性的;相对而言,巴洛克风格则是一种全新的形式,它促成了后来的洛可可(Rococo)艺术的兴起。巴洛克时代的欧洲音乐以德、意、法等几个国家为代表,音乐艺术在这一时期得到了前所未有的迅猛发展。

托马索•阿尔比诺尼(Tommaso Albinoni 1671~1750),意大利作曲家、小提琴家。生于威尼斯,是最早为独奏小提琴写协奏曲的作曲家之一。他作为多产作曲家,写有歌剧约五十部。巴赫对他赞赏备至,曾根据他的主题创作了两首键盘赋格曲。
约翰•帕赫贝尔(Johann Pachelbel 1653~1706),德国管风琴家、作曲家。从海因里希•施韦默学习,1674年起从维也纳的克尔为师。1677年任爱森纳赫宫廷管风琴师,与巴赫之父相识。先后在埃尔富特(1678)、斯图加特(1690)、戈塔和纽伦堡(1692)的圣塞巴尔杜斯大教堂供职。在羽管键琴组曲与小赋格曲风格的管风琴众赞歌前奏曲的领域中,他是巴赫的重要先驱者。(整理)

专辑曲目:
Tomaso Albinoni (1671-1751)
01. Adagio in G minor for Strings & Organ (Arr. Remo Giazotto)
Antonio Vivaldi (1678-1741)
02. Concerto for Flute, Strings & Harpsichord in G minor, op.10 no.2 "La Notte" / 1. Largo - Fantasmi. Presto
03. Concerto for Flute, Strings & Harpsichord in G minor, op.10 no.2 "La Notte" / 2. Largo - Presto
04. Concerto for Flute, Strings & Harpsichord in G minor, op.10 no.2 "La Notte" / 3. Il sonno. Largo – Allegro
Johann Sebastian Bach (1685-1750)
05. Air (from the Suite for Orchestra no.3 in D major, BWV 1068)
Johann Pachelbel (1653-1706)
06. Canon and Gigue in D major for 3 violins and Basso Continuo
Christoph Willibald Gluck (1714-1787)
07. Dance of the Blessed Spirits From the opera "Orpheus and Eurydice"
Wolfgang Amadeus Mozart (1756-1791)
08. - Serenata notturna in D major, K.239 / 1. Marcia. Maestoso
09. - Serenata notturna in D major, K.239 / 2. Menuetto
10. - Serenata notturna in D major, K.239 - 3. Rondeau. Allegretto - Adagio / 3. Rondeau. Allegretto - Adagio - Allegro
Thomas Brandis, Emil Maas (violins)
Neithard (viola)

抓取记录:
Exact Audio Copy V1.0 beta 3 from 29. August 2011

EAC 抓取日志文件从28. 四月 2014, 19:53

Berliner Philharmoniker - Herbert von Karajan / Albinoni: Adagio - Pachelbel: Canon

使用驱动器:HL-DT-STDVDRAM GU40N   Adapter: 0ID: 1

读取模式      : 可靠Secure
使用精确流   : 是
清空音频缓存    : 是
使用 C2 指示器 : 否

读取偏移校正:               : 103
读取 Lead-In 和 Lead-Out : 否
用静音填充抓取中丢失偏移的采样       : 是
去除首尾静音块               : 否
在CRC 计算中使用了空样本       : 是
已用接口                  : Win NT 及 2000 本地 Win32 接口

所用输出模式: : 内部 WAV 函数
样本格式    : 44.100 Hz; 16 Bit; 立体声


已抓取 CD 的 TOC

   音轨 |    起始    |    长度    |起始扇区|结束扇区
    --------------------------------------------
      1 |0:00.33 | 11:51.50 |   33 |53407
      2 | 11:52.08 |3:24.57 |53408 |68764
      3 | 15:16.65 |2:15.35 |68765 |78924
      4 | 17:32.25 |3:44.08 |78925 |95732
      5 | 21:16.33 |6:06.00 |95733 | 123182
      6 | 27:22.33 |7:09.25 | 123183 | 155382
      7 | 34:31.58 |6:51.12 | 155383 | 186219
      8 | 41:22.70 |4:23.38 | 186220 | 205982
      9 | 45:46.33 |4:39.45 | 205983 | 226952
   10 | 50:26.03 |4:49.30 | 226953 | 248657


范围状态及错误

已选择范围

   文件名 E:\Music\Berliner Philharmoniker - Herbert von Karajan - Albinoni- Adagio - Pachelbel- Canon.wav

   峰值电平 83.9 %
   抓取速度 3.9 X
   范围质量 100.0 %
   复制 CRC DB656C93
   复制成功

没有错误发生


AccurateRip 摘要

音轨1精确地校准抓取65)(AR v2)
音轨2精确地校准抓取65)(AR v2)
音轨3精确地校准抓取64)(AR v2)
音轨4精确地校准抓取66)(AR v2)
音轨5精确地校准抓取64)(AR v2)
音轨6精确地校准抓取64)(AR v2)
音轨7精确地校准抓取62)(AR v2)
音轨8精确地校准抓取63)(AR v2)
音轨9精确地校准抓取62)(AR v2)
音轨 10精确地校准抓取60)(AR v2)

所有音轨精确校准抓取

状态报告结尾

---- CUETools DB Plugin V2.1.3

found, Submit result: discs with pregaps not supported in this protocol version
(8/9) Differs in 0 samples @
(1/9) No match
You can use CUETools to repair this rip.

下载地址:
**** Hidden Message *****

警告:
本资源仅供试听交流分享,请于下载后24小时内删除。
唱片版权归发行公司所有。请勿用于商业用途,一切商业形式的下载与发布者无关。
如果你喜欢这张唱片,请购买正版。

chnjacky 发表于 2014-4-30 09:29

早起发贴,敬业!

jorvi_wang 发表于 2014-4-30 09:30

好贴,支持!

王平开心 发表于 2014-4-30 09:31

谢谢欧元原抓,巴洛克小品清新典雅,值得聆听收藏!谢谢楼主分享!

esc9 发表于 2014-4-30 09:32

唯美的精华名作,最爱卡侬:handshake

nomax 发表于 2014-4-30 09:33

这个是DG大黄标系列中的吗?看名头很是欢喜,感谢欧元分享!

Hongxu 发表于 2014-4-30 09:33

Canon 巴洛克小品清新典雅,值得聆听收藏!谢谢楼主分享!

酥糖 发表于 2014-4-30 09:35

:lol群上力量打,多谢欧元分享,经典卡农,主要指挥太帅

wfrx 发表于 2014-4-30 09:45

原抓精彩好碟, 指挥非常有名,必须收下,谢谢楼主了。非常好听的整个作曲。

raaaychan 发表于 2014-4-30 09:57

虽已有德版银圈,但楼主一早发帖劳苦功高,故此一顶
页: [1] 2 3 4 5 6 7 8 9 10
查看完整版本: DG-卡拉扬-柏林爱乐乐团-柔板-卡农-小夜曲-1CD-WAV-百度云