天下太平 发表于 2014-1-17 17:56

飞利浦唱片:巴赫《管风琴协奏曲》西德满银无字01版[WAV整轨/百度]

http://img226.poco.cn/mypoco/myphoto/20140117/10/56519829201401171053537615745285628_002.jpg
http://img226.poco.cn/mypoco/myphoto/20140117/10/56519829201401171053537615745285628_001.jpg
http://img226.poco.cn/mypoco/myphoto/20140117/10/56519829201401171053537615745285628_000.jpg
专辑名称:6 Schübler Chorales
专辑作曲:约翰·塞巴斯蒂安·巴赫
管风琴演奏:柯森帕/Daniel Chorzempa
唱片公司:飞利浦唱片
录音地点:瑞士日内瓦圣.彼得路德大教堂
录音制式:DDD
发行时间:1984
内圈码:412 117-2 01*
版本:金线PH高价版
MADE IN W.GERMANY BY POLYGRAM
介质:CD
CD数量:1
歌曲属性:古典音乐
at the silbermann
organ of the
domkirche
arlesheim

专辑简介:
    1754年在德国莱比锡一家分开发行的刊物上,巴赫被评为“世界最著名的管风琴作曲家”。巴赫在去世前最后的一部作品正是为管风琴而作的《赋格的艺术》,这是集他一生音乐艺术之大成的辉煌力作,可惜作品未完成,他就离世了。
    他把完美、和谐、精致的序列思想发挥到最高的境界,德国一代哲学宗师海德格尔曾揭示出这部作品内在的魅力:“巴赫已经在键盘上用音乐记录和展现所有人性的秘密了”!他深受巴赫的影响,在《存在与时间》哲学著作中借鉴和引用了巴赫庄严的音乐思想,为后世所瞩目:“人,诗意的栖居。”正是蕴含了巴赫在音乐中包含的人生理想。
    在这些结构严谨的巨著中,他以复调、卡农、赋格、对位的技法展开多层次的乐思、发展,同时揭示人性多层次的心理结构,疑问与坚定、欢乐与悲伤、平静与不安、庄严与平凡等同时进行,场面宏大,气势宏伟。这是一个老人在阅尽世事后,对“人”本身、人内在本性深刻的洞见与了解,在平和中去构筑起一座圣殿般的精神大厦!演奏纹理清晰、鲜活有力、触键判断准确,音色层次多样,是高水平的解读。录音环境逼真再现,堂音环绕,音场庄严、深邃。

CD曲目:
Schübler Chorales (6), chorale preludes for organ, BWV 645-650 (BCK 22-27)
01.Silbermann, Domstiftskirche, Arlesheim - Wachet aur, ruft uns die Stimme, BWV 645
02.Silbermann, Domstiftskirche, Arlesheim - Wo soll ich fliehen hin(Auf meinen lieben Gott), BWV 646
03.Silbermann, Domstiftskirche, Arlesheim - Wer nur den lieben Gott lasst walten, BWV 647
04.Silbermann, Domstiftskirche, Arlesheim - Meine Seele erhebet den Herren, BWV 648
05.Silbermann, Domstiftskirche, Arlesheim - Ach bleib bei uns, Herr Jesu Christ, BWV 649
06.Silbermann, Domstiftskirche, Arlesheim - Kommst du nun, Jesu, vom Himmel herunter, BWV 650
07.Silbermann, Domstiftskirche, Arlesheim - Pièce d'orgue - Fantasy in G major, BWV 572
08.Silbermann, Domstiftskirche, Arlesheim - Partite diverse sopra - Sei gegrüsset, Jesu gütig, BWV 768
http://player.56.com/p4_128657762.swf
**** Hidden Message *****
声明:禁止转载及二传。本作品仅供个人交流之用, 任何组织和个人不得公开传播或用于任何商品盈利用途, 否则一切后果由该组织或个人承担! 本站和制作者不承担任何法律责任! 请自觉于下载24小时内删除! 谢谢合作!

天下太平 发表于 2014-1-17 17:56

Exact Audio Copy V1.0 beta 1 from 15. November 2010

EAC 抓取日志文件从14. 一月 2014, 18:58

Daniel Chorzempa / 管风琴协奏曲

使用驱动器:YAMAHACRW8824E   Adapter: 0ID: 1

读取模式   : 保护
使用精确流    : 是
废除音频缓冲   : 是
使用 C2 指针 : 否

读取偏移校正                : 117
读取 Lead-In 和 Lead-Out : 否
用静音填充抓取中丢失偏移的采样       : 是
去除首尾静音块               : 否
在 CRC 计算中使用了空样本       : 是
已用接口                  : 已安装外部 ASPI 接口

所用输出格式 : 内部 WAV 函数
样本格式   : 44.100 Hz;16 Bit;立体声


被抓轨 CD 的 TOC

      音轨 |    开始    |    长度    |起始扇区|结尾扇区
   --------------------------------------------
      1 |0:00.32 |4:23.33 |   32 |19789
       2 |4:23.65 |1:47.05 |19790 |27819
       3 |6:10.70 |4:22.60 |27820 |47529
       4 | 10:33.55 |2:37.72 |47530 |59376
       5 | 13:11.52 |2:28.15 |59377 |70491
       6 | 15:39.67 |3:23.55 |70492 |85771
       7 | 19:03.47 | 11:11.18 |85772 | 136114
       8 | 30:14.65 | 22:08.67 | 136115 | 235781


范围状态及错误

已选择范围

   文件名 D:\原抓文件夹\飞利浦唱片:巴赫《管风琴协奏曲》西德满银无字01版\Daniel Chorzempa - 管风琴协奏曲.wav

      峰值电平 97.7 %
1.1 X
      范围质量 99.8 %
      复制 CRC 9E83E5D9
      复制成功

没有错误发生


AccurateRip 概要

音轨1已正确抓取 (确认 7)
音轨2已正确抓取 (确认 7)
音轨3已正确抓取 (确认 7)
音轨4已正确抓取 (确认 7)
音轨5已正确抓取 (确认 7)
音轨6已正确抓取 (确认 7)
音轨7已正确抓取 (确认 7)
音轨8已正确抓取 (确认 7)

所有音轨已被精确抓取

状态报告结尾

zenio 发表于 2014-1-17 18:04

诗意的栖居,巴赫

xxzhongsky 发表于 2014-1-17 18:08

网上关于这位演奏者的介绍太少了,只找到一点英文的。
Organist Daniel Chorzempa studied at the University of Minnesota from 1955-65, then at the Staatliche Musikhochschule in Cologne before returning to Minnesota to complete his Ph.D. in 1971. He began his career as a pianist, first in Hamburg and Cologne in 1969, then in Oxford and London in 1970 and 1971; however, it was his debut as an organist in London in 1969 that gained him critical acclaim.

hf1208 发表于 2014-1-17 21:12

王平开心 发表于 2014-1-17 21:18

版本不错,值得洗版的好音乐,谢谢楼主分享!

yaogunpizi 发表于 2014-1-18 10:58

飞利浦金线!~

pfm 发表于 2014-1-20 11:18

超级好东西,录音也很棒,刚刚看到,多谢了!

山岳新竹 发表于 2014-1-22 09:04

太平兄分享的好版好碟绝对不能错过的,低速完美抓轨值得永久收藏,连着三张都要收下,感谢分享。

hitman47 发表于 2014-1-22 23:42

飞利浦金线的碟现在都绝版了!!楼主的碟片真好
页: [1] 2 3 4 5 6 7 8 9 10
查看完整版本: 飞利浦唱片:巴赫《管风琴协奏曲》西德满银无字01版[WAV整轨/百度]