江天一色 发表于 2013-12-20 16:56

【论坛原创】DG 柴可夫斯基交响诗普列特涅夫3CD[WAV整轨+度盘]

本帖最后由 江天一色 于 2014-10-10 08:35 编辑

DG 柴可夫斯基交响诗普列特涅夫3CD

专辑英文名: TchaikovskySymphonic PoemsManfred Symphony
专辑中文名: 普列特涅夫 柴可夫斯基交响诗,曼弗莱德交响曲
版本:DG DIGITAL STEREO 477 053-2    Made in the E.U
录音时间:1994(CD1 4;CD3 1-5) 1997(CD2 1-2,4 )1998(CD1,1-3 CD2 3,6 CD3 6)
出版时间:2011.8
格式:WAV镜像
下载:百度网盘

专辑实拍:














内页插图:








专辑介绍:

      普列特涅夫,俄罗斯指挥家,1974年就学于莫斯科音乐学院学习钢琴.1978年获柴科夫斯基国际钢琴比赛一等奖,之后,就作为优秀的钢琴家而在世界各地巡回演出,以演奏柴科夫斯基、普罗科菲耶夫、李斯特的作品最为闻名。1990年苏联解体后,他纠集优秀的演奏家,组成俄罗斯国家交响乐团,这是1917年十月革命后俄罗斯诞生的第一个完全独立于任何政府和组织的乐团。

      普列特涅夫指挥他的俄罗斯国家交响乐团1990年11月16日在莫斯科音乐学院演奏厅进行首演,1993年与DG公司签订了专属录音合同。普列特涅夫的指挥生涯是与俄罗斯国家交响乐团联系在一起的,他们录制的柴科夫斯基全套交响诗与《曼弗雷德交响曲》,以一种全新的、更深入的诠释,而成为新的经典。


抓轨日志:


Exact Audio Copy V1.0 beta 3 from 29. August 2011

EAC extraction logfile from 10. December 2013, 15:54

Russian National Orchestra/ Symphonic Poems, Manfred Symphony (1 of 3)

Used drive: TSSTcorpDVD-RW SH-216AB   Adapter: 0ID: 1

Read mode               : Secure
Utilize accurate stream : Yes
Defeat audio cache      : Yes
Make use of C2 pointers : No

Read offset correction                      : 6
Overread into Lead-In and Lead-Out          : No
Fill up missing offset samples with silence : Yes
Delete leading and trailing silent blocks   : No
Null samples used in CRC calculations       : Yes
Used interface                              : Native Win32 interface for Win NT & 2000

Used output format : Internal WAV Routines
Sample format      : 44.100 Hz; 16 Bit; Stereo


TOC of the extracted CD

   Track |   Start|Length| Start sector | End sector
    ---------------------------------------------------------
      1|0:00.00 | 19:24.02 |         0    |    87301   
      2| 19:24.02 | 23:59.45 |   87302    |   195271   
      3| 43:23.47 | 14:21.05 |    195272    |   259851   
      4| 57:44.52 | 21:39.21 |    259852    |   357297   


Range status and errors

Selected range

   Filename E:\MUSIC\自抓\柴可夫斯基交响诗普列特涅夫\CD1 Symphonic Poems, Manfred Symphony (1 of 3).wav

   Peak level 100.0 %
   Extraction speed 6.9 X
   Range quality 100.0 %
   Copy CRC FD975887
   Copy OK

No errors occurred

End of status report


下载地址:
链接:http://pan.baidu.com/s/1eQzl49W 密码:**** Hidden Message *****

本CD资料仅供试听和测试之用,请于下载后24小时内删除,请勿用于任何商业用途或公开传播,否则后果自负。若您喜欢此CD的内容,建议您选择购买正版授权的光盘。

江天一色 发表于 2013-12-20 17:01

本人发布的其它资源:


Sony长笛版维瓦尔第《四季》及三首长笛协奏曲
http://www.pt80.net/thread-620098-1-1.html


DG伯恩斯坦 柴可夫斯基4,5&6交响曲等 4CD
http://www.pt80.net/thread-619228-1-1.html


http://www.pt80.net/thread-618008-1-1.html
VOXBOX布伦德尔演奏李斯特2CD


http://www.pt80.net/thread-616508-1-2.html
DG米开兰杰利《舒曼 狂欢节 维也纳狂欢节》


MASTERWORKS-瓦尔特 布鲁克纳第九交响曲
http://www.pt80.net/thread-610822-1-3.html

DECCA小澤征爾七十五歲慶賀專輯11CD
http://www.pt80.net/thread-610086-1-1.html

MASTERWORKS-佩伦西亚与鲁普四手联弹莫扎特和舒伯特
http://www.pt80.net/thread-604805-1-1.html


DECCA--阿什肯纳齐 俄罗斯梦幻
http://www.pt80.net/thread-603196-1-1.html

RCA原版金标霍洛维兹柴一钢协穆索尔斯基展览会图画
http://www.pt80.net/thread-593725-1-1.html

RCA红印-帕瓦罗蒂浪漫歌曲集
http://www.pt80.net/thread-592585-1-1.html


AUDIOR切利比达克-巴托克管弦乐协奏曲/德彪西牧神午后-斯图加特RSO
http://www.pt80.net/thread-591379-1-1.html


MEI-克路易坦-福雷安魂曲
http://www.pt80.net/thread-588921-1-1.html

EMI-马勒第十交响曲-西蒙拉特柏林爱乐
http://www.pt80.net/thread-583809-1-1.html

EMI 杜普蕾独奏会
http://www.pt80.com/forum.php?mod=viewthread&tid=581836&extra=


决定盘ALTUS明希指挥柏辽兹幻想交响曲(WAV镜像+度盘)
http://www.pt80.com/thread-577424-1-1.html


ALTUS明希指挥贝多芬第五交响曲等NHK现场录音(WAV镜像+度盘)
http://www.pt80.com/thread-575953-1-1.html


ALTUS舒李希特现场合集--贝多芬英雄门小协舒曼曼弗雷德序曲2CD(WAV整轨+度盘)
http://www.pt80.com/thread-572449-1-1.html



日本ALTUS公司力作穆拉文斯基肖斯塔科维奇第五交响曲(WAV整轨+度盘)
http://www.pt80.com/thread-570537-1-1.html


4张日本DeAGOSTINI公司1998年的老CD (WAV镜像+度盘)
http://www.pt80.com/thread-567663-1-1.html

EMI切利比达克指挥慕尼黑爱乐瓦格纳管弦乐作品 现场录音 (WAV镜像+度盘)
http://www.pt80.com/thread-567309-1-1.html


RR史上烧得最劲的美国专业测试第一天碟波莱罗(火药库)明尼苏达交响乐团大植英次指挥
http://www.pt80.com/thread-566793-1-1.html


明希圣桑第三交响曲&德彪西 大海、伊贝尔 港口[度盘]
http://www.pt80.com/thread-530627-1-1.html


《瓦格纳歌剧全集》43CD欧版(WAV+度盘)
http://www.pt80.com/thread-545213-1-1.html


肯培指挥德累斯顿国家交响乐团L.斯特劳斯管弦乐作品集9CD(FLAC+度盘)
http://www.pt80.com/thread-546137-1-1.html


理查斯特劳斯的管弦乐作品(WAV镜像整轨) DG 437 790-2
http://www.pt80.com/thread-504879-1-1.html

24bit绝版发烧24K金碟康德拉辛指挥里姆斯基天方夜谭鲍罗丁第二交响曲WAV镜像整轨+度盘
http://www.pt80.com/thread-528193-1-1.html


24K金碟24BIT绝版发烧【莱纳】DECCA版L斯特劳斯提尔的恶作剧死与净化等WAV
http://www.pt80.com/thread-525665-1-1.html

SONY 报纸版霍洛维茨原版封套专辑10CD(WAV镜像+度盘)
http://www.pt80.com/thread-517899-1-1.html


PentaTone理查斯特劳斯 交响音诗(WAV镜像整轨+CUE度盘)
http://www.pt80.com/thread-516334-1-1.html

DG-肖邦作品全集17CD (WAV+度盘)
http://www.pt80.com/forum.php?mod=viewthread&tid=514157


鲁宾斯坦K2典藏系列14 舒曼:钢琴协奏曲、交响练习曲、阿拉贝斯克&预言岛 (WAV镜像整轨)

http://www.pt80.com/thread-509406-1-1.html

Aloneboy2009 发表于 2013-12-20 17:14

正宗的风味,感谢!:handshake

ggxggx2013 发表于 2013-12-20 17:16

谢谢楼主.谢谢分享[柴可夫斯基交响诗普列特涅夫]作品.

mayupei 发表于 2013-12-20 18:22

正宗的风味,感谢

xxzhongsky 发表于 2013-12-20 19:21

米哈伊尔·普列特涅夫:俄罗斯指挥家,1974年就学于莫斯科音乐学院学习钢琴.1978年获柴科夫斯基国际钢琴比赛一等奖,之后,就作为优秀的钢琴家而在世界各地巡回演出,以演奏柴科夫斯基、普罗科菲耶夫、李斯特的作品最为闻名。1990年苏联解体后,他纠集优秀的演奏家,组成俄罗斯国家交响乐团。俄罗斯国家交响乐团是1917年十月革命后俄罗斯诞生的第一个完全独立于任何政府和组织的乐团。普列特涅夫指挥他的俄罗斯国家交响乐团1990年11月16日在莫斯科音乐学院演奏厅进行首演,1993年与DG公司签订了专属录音合同。普列特涅夫的指挥生涯是与俄罗斯国家交响乐团联系在一起的,他们录制的柴科夫斯基全套交响曲与《曼弗雷德交响曲》,以一种全新的、更深入的诠释,而成为新的经典。

jxj1974 发表于 2013-12-20 20:57

普列特涅夫同志2010年版的柴六很不错, 以此类推, 这套交响诗也不会差. 谢谢!

topyo 发表于 2013-12-20 23:15

非常感谢楼主分享啊~

山岳新竹 发表于 2013-12-21 08:29

柴可夫斯基交响诗普列特涅夫3张连放实在令人赞叹,收下来慢慢品味,感谢原抓分享。

52020 发表于 2013-12-21 11:07

非常不错,谢谢!
页: [1] 2 3 4 5 6 7 8 9 10
查看完整版本: 【论坛原创】DG 柴可夫斯基交响诗普列特涅夫3CD[WAV整轨+度盘]