vmmx1234 发表于 2013-10-7 12:50

【自抓珍品】波丝特尼柯娃《普罗科菲耶夫 第 1/4/5 钢琴协奏曲》WAV/720MB/百度

本帖最后由 vmmx1234 于 2013-10-7 12:48 编辑





专辑名称:普罗科菲耶夫 第 2、3钢琴协奏曲 [俄罗斯顶级钢琴家+乐队+指挥=最正宗俄罗斯演绎]
专辑艺人:波丝特尼柯娃(Viktoria Postnikova)
专辑乐队:苏联文化部交响乐队
专辑指挥:罗杰斯特文斯基
唱片公司:CDKMUSIC
唱片编号:CDKM2002
专辑风格:古典
文件格式:16bit WAV+CUE
文件容量:720MB
自抓机器:著名的浦科特PLEXTOR 白金I代专业音乐刻录机,用1.7X速度配合EAC精确抓取,质量极佳,远胜于用DVD刻录机抓轨的。

波丝特尼柯娃(Viktoria Postnikova)- 俄罗斯著名女钢琴家

俄罗斯著名女钢琴家,1967年毕业于莫斯科音乐学院,期间师从雅可夫·弗利尔教授攻读研究生课程。1965年在国际肖邦比赛中获奖,其后在英国、葡萄牙及俄罗斯的重要比赛中也获得了奖项。波丝特尼柯娃善于演奏各国古典作品及俄罗斯传统钢琴作品,其最卓越的成就在于录制了柴可夫斯基的钢琴作品全集。她与丈夫、俄罗斯指挥家根纳季·罗杰斯特文斯基一道参与了许多音乐会、独奏会演出及录音工作。

她是著名俄国钢琴教师Yakov Fliere(有时拼成Jakob Flier)的学生,她七岁就公开演奏莫扎特钢琴协奏曲,毕业于莫斯科音乐院的她,在还没毕业前就参加华沙萧邦钢琴大赛、英国的里兹钢琴大赛(鲁普、普莱亚、内田光子、席夫都出自此赛)和莫斯科柴可夫斯基大赛也都获得优秀的成绩。她很受已逝的俄国钢琴大师李希特的喜欢,晚年两人经常举行共同的音乐会。她拥有惊人的宽广曲目,而且往往都挑战一般男性专属的曲目,像是布梭尼艰难长大的钢琴协奏曲、布拉姆斯两首钢琴协奏曲、柴可夫斯基三首钢琴协奏曲等等,她也曾和小提琴大师曼纽因合作过多场独奏会。

曲目

01 Sergei Prokofiev, Concerto No.1 in D flat major, op.10

Sergei Prokofiev, Concerto No.4 in B flat major, op.53
02 Vivace
02 Andante
03 Moderato
04 Vivace

Sergei Prokofiev, Concerto No.5 in G major, op.55
05 Allegro con brio
06 Moderato ben accentuato
07 Toccata. Allegro con fuoco
08 Larghetto
09 Vivo

本资源仅供试听,禁作商用或其它用途,试听完毕请予24小时内删除,如有后果请自负!

Exact Audio Copy V1.0 beta 2 from 29. April 2011

EAC日志文件创建时间:29. 九月 2013, 20:08

Sergei Prokofiev / Concertos No.1,4,5 for Piano and Orchestra

光驱型号   PLEXTOR CD-R   PREMIUM   Adapter: 6ID: 0

抓轨模式   : 精确模式
使用精确流  : 是
屏蔽数据缓存 : 是
使用C2纠错 : 是

读取偏移校正             : 30
通读Lead-In和Lead-Out : 否
用静音填充丢失的偏移采样       : 是
删除开始与结尾的静音部分       : 否
校验和计算中使用空白采样       : 否
使用的接口              : Win NT & 2000 的本地Win32接口

输出格式    : 内部WAV例程
采样格式    : 44.100 Hz; 16 Bit; 立体声

CD内容目录(TOC)

   Track |   Start|Length| Start sector | End sector
    ---------------------------------------------------------
      1|0:00.00 | 16:29.38 |         0    |    74212   
      2| 16:29.38 |4:31.50 |   74213    |    94587   
      3| 21:01.13 | 11:52.17 |   94588    |   148004   
      4| 32:53.30 |7:41.13 |    148005    |   182592   
      5| 40:34.43 |1:39.15 |    182593    |   190032   
      6| 42:13.58 |5:40.67 |    190033    |   215599   
      7| 47:54.50 |4:36.63 |    215600    |   236362   
      8| 52:31.38 |2:00.05 |    236363    |   245367   
      9| 54:31.43 |7:33.70 |    245368    |   279412   
       10| 62:05.38 |5:59.35 |    279413    |   306372   

===以下为抓取选定区域的结果报告===

选定区域为(空白为全盘镜像):

   峰值电平 :79.4 %
   抓轨速度 :1.7 X
   范围质量 :100.0 %
   复制CRC:E0CD5A24
   复制成功 !

没有错误发生
所有音轨已精确抓取成功
日志文件结束
链接:http://pan.baidu.com/s/1opC2p 密码:awr2

hoan 发表于 2013-10-7 16:06

感谢分享原抓珍品钢协!

musicdiger 发表于 2013-10-7 16:23

俄罗斯的钢琴家真是群星璀璨

fbblgg 发表于 2013-10-7 17:45

非常喜欢楼主的分享

jincx 发表于 2013-10-7 19:21

好东西啊,下来听i

jinchen 发表于 2013-10-7 19:24

这些碟实在是珍品,元老大人真幸福!感谢辛苦分享!

wei34512 发表于 2013-10-7 19:37

1234:感谢您辛苦抓轨,好东西!!:handshake

kk701 发表于 2013-10-7 20:05

还是要俄罗斯人自己演绎

jiangxunmoqi 发表于 2013-10-7 20:30

费利尔的学生~貌似俄派钢琴家里属于不太出名的...

hongchao 发表于 2013-10-7 21:22

俄国大餐。
页: [1] 2 3 4 5 6 7 8 9 10
查看完整版本: 【自抓珍品】波丝特尼柯娃《普罗科菲耶夫 第 1/4/5 钢琴协奏曲》WAV/720MB/百度