雨点rainxin163 发表于 2013-4-17 22:30

(原抓)红叶堂-龚一古琴 24K金HQCD(2012全球最佳华语奖民族器乐专辑)(WAV镜像+度盘

专辑名称:国乐宝典 古琴
作曲家:中国古谱
艺术家:龚一
指挥:独奏
乐团:独奏
版本:洪叶堂 24K gold SQCD
发行时间:2011年
CD数目:1CD
格式:WAV镜像
下载:百度网盘


专辑实拍:



专辑介绍:

   (龚一:上海民族乐团一级演员。1954年学琴,1966年毕业于上海音乐学院民乐系,师从12位琴家,继承积累了大量古曲,在伦敦、新加坡、香港等地多次举行过古琴独奏音乐会。)
古琴家龚一的书斋是琴的“世界”。
  雅室不大,满屋多琴,所以取名“五琴堂”。此非附庸风雅,而是斋中藏有宋、元、明、清五架珍宝。其中一架还是李清照亲手抚操过的古琴。
  走进书斋,好似久行沙漠后忽然见到一片绿洲,瞬间又回复到人类古文明时期。古琴,自古有“七条弦上五音寒,此艺知音自古难”之说,而龚一几十年来埋首其中,伴琴终生。
  2000年中国农历除夕夜,龚一将携一架有着近千年历史的宋琴,走进维也纳金色大厅,抚琴奏响一曲《流水》,首次将中国春秋时期俞伯牙钟子期知音相遇的故事,告诉西方艺术之都的维也纳人听。曲中,“涓涓细流,远浪渐来,惊涛拍岸卷起千堆雪……”,乐曲把多种流水动态,表现得淋漓尽致。
  古琴,在中国历史上有着浓浓的一笔。琴学典籍浩如烟海,留下有待打谱整理的古琴曲谱,就达三千首之多。现在音乐会上的演奏曲目,至多只有五六十首。以历史上重大事件为故事题材的古琴曲俯拾可取。你看,有孔子为题材的《幽兰》、有以聂政刺韩王而改编的四十五段大曲《广陵散》,有让“汉使落泪对边草”的十八段《胡笳》,有苏武威武不屈的《汉节操》,表现南宋时期忧国忧民的《潇湘水云》,还有如,宋明时期一批文人淡泊避世、归隐山林所作的《平沙落雁》、《渔歌》、《渔樵问答》、《山居吟》……。
  可一个“雅”字,曲高和寡。令古今多少琴家感慨,二三千年来,他们一直在为古琴少知音而困惑。龚一说:“古声澹无味,不称今人情。”
  为“知音”,龚一四十多年汗洒古琴,艰难跋涉在古琴王国中。本着“望今制奇、参古定法”之原则,近些年来,他对琴乐进行大胆而稳重的革新,在演奏、打谱、度曲、教学上均有所建树,并出版了教学录像带及《古琴演奏法》一书。
  为弘扬古琴艺术,他不断推陈出新,与作曲家携手,创作并演奏了不少新曲,如《楼兰散》在新加坡获得好评,与许国华合作创作的《春风》、《梅园吟》,深受听众喜爱,还有《山水情》、《江流》等新曲,有的在海内外的音乐会上演奏,有的制作成唱片。特别是他演奏时,“胸中有古人,眼前有听众”,深厚的人文功底,全在琴声中传出。
  在许多古代音乐泉流早已干涸而成为考古对象的今天,古琴艺术的清泉却依然潺潺汩汩,正是因为龚一等一代琴家的孜孜不倦而所为。



专辑曲目:

01.碣石调-幽兰 10:36
02.秋风词 4:22
03.流水 5:54
04.关山月 4:49
05.春晓吟 4:11
06.捣衣 6:12
07.精忠词 5:12
08.酒狂 4:36
09.良宵引 3:18
10.欸乃 7:01


EAC Log:

EAC 抓取日志文件从13. 四月 2013, 18:56

Gong Yi / Gu Qin Special Feature

使用驱动器:PIONEER DVD-ROM DVD-232   Adapter: 1ID: 0

读取模式      : 可靠Secure
使用精确流   : 是
清空音频缓存    : 否
使用 C2 指示器 : 否

读取偏移校正:               : 6
读取 Lead-In 和 Lead-Out : 否
用静音填充抓取中丢失偏移的采样       : 是
去除首尾静音块               : 否
在CRC 计算中使用了空样本       : 是
已用接口                  : Win NT 及 2000 本地 Win32 接口

所用输出模式: : 内部 WAV 函数
样本格式    : 44.100 Hz; 16 Bit; 立体声


已抓取 CD 的 TOC

   音轨 |    起始    |    长度    |起始扇区|结束扇区
    --------------------------------------------
      1 |0:00.00 | 10:41.10 |      0 |48084
      2 | 10:41.10 |4:25.20 |48085 |67979
      3 | 15:06.30 |5:59.38 |67980 |94942
      4 | 21:05.68 |4:54.42 |94943 | 117034
      5 | 26:00.35 |4:16.50 | 117035 | 136284
      6 | 30:17.10 |6:17.31 | 136285 | 164590
      7 | 36:34.41 |5:15.57 | 164591 | 188272
      8 | 41:50.23 |4:40.35 | 188273 | 209307
      9 | 46:30.58 |3:22.44 | 209308 | 224501
   10 | 49:53.27 |7:01.70 | 224502 | 256146


范围状态及错误

已选择范围

   文件名 E:\古典CD抓轨 WAV\红叶堂-龚一古琴 24K金HQCD(2012全球最佳华语奖民族器乐专辑)\Gong Yi - Gu Qin Special Feature.wav

   峰值电平 100.0 %
   抓取速度 6.1 X
   范围质量 99.9 %
   复制 CRC BB702A99
   复制成功

没有错误发生




下载地址:**** Hidden Message *****

zhangtom 发表于 2013-4-17 22:35

谢谢雨点版主分享古琴民韵g,辛苦了.

leslieleslie 发表于 2013-4-17 22:38

很喜欢龚一的古琴   多谢

cyfcoco 发表于 2013-4-17 22:46

哇哈哈哈,终于等到雨版分享这张好碟了,谢谢啦。龚一大师倾力之作啊

xuejiuxi 发表于 2013-4-17 22:49

龚一古琴,2012全球最佳华语奖民族器乐专辑。谢谢雨版无私奉献

6122cplayer 发表于 2013-4-17 22:50

多谢雨版的盘,怒挤前排,哈哈。
听听这古琴~

不飞 发表于 2013-4-17 23:03

谢谢楼主分享,越来越喜欢古音了。

Isaac 发表于 2013-4-17 23:49

谢谢分享这张龚一大师好碟!

ya0212 发表于 2013-4-18 00:18

hongjianwuse 发表于 2013-4-18 00:22

谢谢雨点版主分享的大师古琴!
页: [1] 2 3 4 5 6 7 8 9 10
查看完整版本: (原抓)红叶堂-龚一古琴 24K金HQCD(2012全球最佳华语奖民族器乐专辑)(WAV镜像+度盘