寡闻 发表于 2013-1-1 18:53

(原抓)DG-卡尔伯姆-舒伯特交响曲全集(WAV+CUE 度盘)

本帖最后由 寡闻 于 2013-1-12 22:27 编辑

专辑名称:舒伯特交响曲全集
艺术家:Karl·Bohm(卡尔·伯姆)
版本:DG
CD:471 370-2
CD数:4
乐团:柏林爱乐乐团
文件类型:WAV(镜像)+CUE
下载:百度网盘

专辑实拍:


专辑曲目:

CD1:
Schubert: Symphony #1 In D, D 82 - 1. Adagio, Allegro Vivace
Schubert: Symphony #1 In D, D 82 - 2. Andante
Schubert: Symphony #1 In D, D 82 - 3. Menuetto: Allegretto
Schubert: Symphony #1 In D, D 82 - 4. Allegro Vivace
Schubert: Symphony #2 In B Flat, D 125 - 1. Largo, Allegro Vivace
Schubert: Symphony #2 In B Flat, D 125 - 2. Andante, Vars. #1-5
Schubert: Symphony #2 In B Flat, D 125 - 3. Menuetto: Allegro Vivace
Schubert: Symphony #2 In B Flat, D 125 - 4. Presto Vivace
Schubert: Symphony #3 In D, D 200 - 1. Adagio Maestoso, Allegro Con Brio

CD2:
Schubert: Symphony #3 In D, D 200 - 2. Allegretto
Schubert: Symphony #3 In D, D 200 - 3. Menuetto: Vivace
Schubert: Symphony #3 In D, D 200 - 4. Presto Vivace
Schubert: Symphony #4 In C, D 417, "Tragic" - 1. Adagio, Allegro Vivace
Schubert: Symphony #4 In C, D 417, "Tragic" - 2. Andante
Schubert: Symphony #4 In C, D 417, "Tragic" - 3. Allegro
Schubert: Symphony #4 In C, D 417, "Tragic" - 4. Allegro Vivace

CD3
Schubert: Symphony #5 In B Flat, D 485 - 1. Allegro
Schubert: Symphony #5 In B Flat, D 485 - 2. Andante Con Moto
Schubert: Symphony #5 In B Flat, D 485 - 3. Menuetto: Allegro Con Molto
Schubert: Symphony #5 In B Flat, D 485 - 4. Allegro Vivace
Schubert: Symphony #6 In C, D 589, "Little" - 1. Adagio, Allegro
Schubert: Symphony #6 In C, D 589, "Little" - 2. Andante
Schubert: Symphony #6 In C, D 589, "Little" - 3. Scherzo: Presto, Piu Lento
Schubert: Symphony #6 In C, D 589, "Little" - 4. Allegro Moderato

CD4:
Schubert: Symphony #8 In B Minor, D 759, "Unfinished" - 1. Allegro Moderato
Schubert: Symphony #8 In B Minor, D 759, "Unfinished" - 2. Andante Con Moto
Schubert: Symphony #9 In C, D 944, "The Great" - 1. Andante, Allegro Ma Non Troppo
Schubert: Symphony #9 In C, D 944, "The Great" - 2. Andante Con Moto
Schubert: Symphony #9 In C, D 944, "The Great" - 3. Scherzo
Schubert: Symphony #9 In C, D 944, "The Great" - 4. Finale: Allegro Vivace

EAC log信息:
Exact Audio Copy V1.0 beta 3 from 29. August 2011

EAC 抓取日志文件从31. 十二月 2012, 20:07

Berliner Philharmoniker, Karl Bohm / Schubert: 8 Symphonies (CD 1)

使用驱动器:PIONEER DVD-RWDVR-218L   Adapter: 2ID: 0

读取模式      : 可靠Secure
使用精确流   : 是
清空音频缓存    : 否
使用 C2 指示器 : 否

读取偏移校正:               : 6
读取 Lead-In 和 Lead-Out : 否
用静音填充抓取中丢失偏移的采样       : 是
去除首尾静音块               : 否
在CRC 计算中使用了空样本       : 是
已用接口                  : 已安装外部 ASPI 接口

所用输出模式: : 内部 WAV 函数
样本格式    : 44.100 Hz; 16 Bit; 立体声


已抓取 CD 的 TOC

   音轨 |    起始    |    长度    |起始扇区|结束扇区
    --------------------------------------------
      1 |0:00.00 |9:37.69 |      0 |43343
      2 |9:37.69 |7:47.11 |43344 |78379
      3 | 17:25.05 |6:09.45 |78380 | 106099
      4 | 23:34.50 |5:55.15 | 106100 | 132739
      5 | 29:29.65 | 10:35.48 | 132740 | 180412
      6 | 40:05.38 |8:37.32 | 180413 | 219219
      7 | 48:42.70 |4:05.13 | 219220 | 237607
      8 | 52:48.08 |5:55.50 | 237608 | 264282


范围状态及错误

已选择范围

   文件名 E:\DG-卡尔伯姆-舒伯特交响曲全集\Schubert Symphonies 1&2CD1\Berliner Philharmoniker, Karl Bohm - Schubert- 8 Symphonies (CD 1).wav

   峰值电平 88.2 %
   抓取速度 2.8 X
   范围质量 100.0 %
   复制 CRC A00A345F
   复制成功

没有错误发生


AccurateRip 摘要

音轨1精确地校准抓取2)(AR v2)
音轨2精确地校准抓取2)(AR v2)
音轨3精确地校准抓取2)(AR v2)
音轨4精确地校准抓取2)(AR v2)
音轨5精确地校准抓取2)(AR v2)
音轨6精确地校准抓取2)(AR v2)
音轨7精确地校准抓取2)(AR v2)
音轨8精确地校准抓取2)(AR v2)

所有音轨精确校准抓取

状态报告结尾

---- CUETools DB Plugin V2.1.3

found, Submit result: already submitted
(35/35) Accurately ripped


**** Hidden Message *****

小魏1 发表于 2013-1-1 19:20

这个版本还见过,有过DG其它版根这版不同,收下听听谢谢分享新年快乐!

wujingliang 发表于 2013-1-1 20:19

舒伯特的交响曲,还真不知道全集要收谁的,网上也查不到权威的介绍

weihaili 发表于 2013-1-1 22:42

2009年《企鹅古典唱片指南》推荐为三星。很好的版本了

sfcfox 发表于 2013-1-1 22:55

谢谢分享,有必要收藏一套舒伯特交响曲的全集

zmh1968 发表于 2013-1-1 23:09

谢谢分享舒伯特的交响曲全集,新年快乐!

musicah 发表于 2013-1-1 23:22

帮楼主补个正面和背面大图:


wei34512 发表于 2013-1-1 23:53

:lol极好的版本!新年快乐!!{:soso_e181:}

山岳新竹 发表于 2013-1-2 09:00

好版好碟,收下元旦假期慢慢欣赏,4CD大礼包制作上传辛苦、感谢。新年快乐!

chenzongxi 发表于 2013-1-2 09:43

很喜欢舒伯特的小夜曲 这个要支持
页: [1] 2 3 4 5 6 7 8 9 10
查看完整版本: (原抓)DG-卡尔伯姆-舒伯特交响曲全集(WAV+CUE 度盘)